Сегодня идет свободное скачивание без начисления Download

Белый Бим Черное Ухо (Станислав Ростоцкий) [1977 г., драма, 2 х DVD5]

Ответить на тему
 
Автор
Сообщение

Omen ®

Стаж: 5 лет 10 месяцев

Сообщений: 184329

Торрент-статистика

Пост 08-Фев-2012 18:30

[Цитировать]

- Русское название: Белый Бим Черное Ухо
Год выпуска: 1976
Жанр: Драма
Продолжительность: 02:52:28
-Описание фильма:
Это трогательная история об охотничьей собаке, всем сердцем преданной своему хозяину, пожилому писателю. Однажды фронтовик Иван Иванович тяжело заболел (после войны давали о себе знать старые раны). Кроме верного Бима у него никого не было. Когда Ивана Ивановича увезли в больницу, для пса начались странствия по чужим домам и незнакомым семьям. Много страданий выпало на долю Бима, не подозревавшего об истинной сути человеческой природы. Но среди разных людей, повстречавших пса, и по мере возможностей пытавшихся помочь ему, были и добрые горожане. Почти такие же, как его хозяин…-Режиссер: Станислав Ростоцкий
Актеры: Вячеслав Тихонов, Геннадий Кочкожаров, Вася Воробьев, Михаил Зимин, Римма Мануковская, Михаил Дадыко, Валентина Владимирова, Иван Рыжов, Ирина Шевчук, Анатолий Баранцев, Любовь Соколова, Мария Скворцова, Алексей Миронов, Раиса Рязанова
- -

Диск 1

Видеокодек: MPEG-2
Битрейт видео: ~6398kb/s
Размер кадра: PAL 4:3 (720x576)@(768x576) VBR
Качество видео: DVD5
Аудиокодек: AC3 2.0
Битрейт аудио: 192kb/s VBR
-

DVDInfo

Код:
Title: Локальный диск
Size: 3.97 Gb ( 4 158 504 KBytes ) - DVD-5
Enabled regions: 1, 2, 3, 4, 5, 6, 7, 8
VTS_01 :
Play Length:
Video: PAL 4:3 (720x576) VBR
VTS_02 :
Play Length:
Video: PAL 4:3 (720x576) VBR
Audio:
Russian (Dolby AC3, 6 ch)
VTS_03 :
Play Length: 01:30:00
Video: PAL 4:3 (720x576) VBR
Audio:
Russian (Dolby AC3, 2 ch)
VTS_04 :
Play Length:
Video: PAL 4:3 (720x576) VBR
Audio:
English (Dolby AC3, 6 ch)
VTS_05 :
Play Length:
Video: PAL 4:3 (720x576) VBR
Audio:
English (Dolby AC3, 2 ch)
VTS_06 :
Play Length:
Video: PAL 4:3 (720x576) VBR
Audio:
English (Dolby AC3, 6 ch)
-

MediaInfo

Код:
Общее
Полное имя                       : D:\Фильмы\BIM\Disc 1\VIDEO_TS\VTS_03_1.VOB
Формат                           : MPEG-PS
Размер файла                     : 1024 Мбайт
Продолжительность                : 21 м.
Режим общего битрейта            : Переменный
Общий поток                      : 6724 Кбит/сек
Видео
Идентификатор                    : 224 (0xE0)
Формат                           : MPEG Video
Версия формата                   : Version 2
Профиль формата                  : [email protected]
Параметр BVOP формата            : Да
Параметр матрицы формата         : Выборочная
Продолжительность                : 21 м.
Вид битрейта                     : Переменный
Битрейт                          : 6398 Кбит/сек
Максимальный битрейт             : 8000 Кбит/сек
Ширина                           : 720 пикселей
Высота                           : 576 пикселей
Соотношение сторон               : 4:3
Частота кадров                   : 25,000 кадров/сек
Стандарт вещания                 : PAL
Цветовое пространство            : YUV
Субдискретизация насыщенности    : 4:2:0
Битовая глубина                  : 8 бит
Тип развёртки                    : Чересстрочная
Порядок развёртки                : Нижнее поле первое
Метод сжатия                     : С потерями
Бит/(Пиксели*Кадры)              : 0.617
Размер потока                    : 974 Мбайт (95%)
Аудио
Идентификатор                    : 189 (0xBD)-128 (0x80)
Формат                           : AC-3
Формат/Информация                : Audio Coding 3
Расширение режима                : CM (complete main)
Режим смешивания                 : DVD-Video
Продолжительность                : 21 м.
Вид битрейта                     : Постоянный
Битрейт                          : 192 Кбит/сек
Каналы                           : 2 канала
Расположение каналов             : Front: L R
Частота                          : 48,0 КГц
Битовая глубина                  : 16 бит
Метод сжатия                     : С потерями
Задержка видео                   : 680 мс.
Размер потока                    : 29,2 Мбайт (3%)
Меню
Скриншоты:
        
-

Диск 2

Видеокодек: MPEG-2
Битрейт видео: ~5975kb/s
Размер кадра: PAL 4:3 (720x576)@(768x576) VBR
Качество видео: DVD5
Аудиокодек: AC3 2.0
Битрейт аудио: 192kb/s VBR
-

DVDInfo

Код:
Title: Локальный диск
Size: 3.63 Gb ( 3 810 426 KBytes ) - DVD-5
Enabled regions: 1, 2, 3, 4, 5, 6, 7, 8
VTS_01 :
Play Length:
Video: PAL 4:3 (720x576) VBR
VTS_02 :
Play Length:
Video: PAL 4:3 (720x576) VBR
Audio:
Russian (Dolby AC3, 6 ch)
VTS_03 :
Play Length: 01:22:28
Video: PAL 4:3 (720x576) VBR
Audio:
Russian (Dolby AC3, 2 ch)
VTS_04 :
Play Length:
Video: PAL 4:3 (720x576) VBR
Audio:
English (Dolby AC3, 2 ch)
VTS_05 :
Play Length:
Video: PAL 4:3 (720x576) VBR
Audio:
English (Dolby AC3, 2 ch)
VTS_06 :
Play Length:
Video: PAL 4:3 (720x576) VBR
Audio:
English (Dolby AC3, 2 ch)
-

MediaInfo

Код:
Общее
Полное имя                       : D:\Фильмы\BIM\Disc 2\VIDEO_TS\VTS_03_1.VOB
Формат                           : MPEG-PS
Размер файла                     : 1024 Мбайт
Продолжительность                : 22 м.
Режим общего битрейта            : Переменный
Общий поток                      : 6292 Кбит/сек
Видео
Идентификатор                    : 224 (0xE0)
Формат                           : MPEG Video
Версия формата                   : Version 2
Профиль формата                  : [email protected]
Параметр BVOP формата            : Да
Параметр матрицы формата         : Выборочная
Параметр GOP формата             : M=3, N=12
Продолжительность                : 22 м.
Вид битрейта                     : Переменный
Битрейт                          : 5975 Кбит/сек
Максимальный битрейт             : 8000 Кбит/сек
Ширина                           : 720 пикселей
Высота                           : 576 пикселей
Соотношение сторон               : 4:3
Частота кадров                   : 25,000 кадров/сек
Стандарт вещания                 : PAL
Цветовое пространство            : YUV
Субдискретизация насыщенности    : 4:2:0
Битовая глубина                  : 8 бит
Тип развёртки                    : Чересстрочная
Порядок развёртки                : Нижнее поле первое
Метод сжатия                     : С потерями
Бит/(Пиксели*Кадры)              : 0.576
Размер потока                    : 972 Мбайт (95%)
Аудио
Идентификатор                    : 189 (0xBD)-128 (0x80)
Формат                           : AC-3
Формат/Информация                : Audio Coding 3
Расширение режима                : CM (complete main)
Режим смешивания                 : DVD-Video
Продолжительность                : 22 м.
Вид битрейта                     : Постоянный
Битрейт                          : 192 Кбит/сек
Каналы                           : 2 канала
Расположение каналов             : Front: L R
Частота                          : 48,0 КГц
Битовая глубина                  : 16 бит
Метод сжатия                     : С потерями
Задержка видео                   : 1 с. 0 мс.
Размер потока                    : 31,2 Мбайт (3%)
Меню
Скриншоты:
        
Вне форума [Профиль] [ЛС]
Показать сообщения:    
Ответить на тему

Текущее время: Сегодня 14:13

Часовой пояс: GMT + 3



Вы не можете начинать темы
Вы не можете отвечать на сообщения
Вы не можете редактировать свои сообщения
Вы не можете удалять свои сообщения
Вы не можете голосовать в опросах
Вы не можете прикреплять файлы к сообщениям
Вы не можете скачивать файлы