Today is a free download without charge Download

Дело N 306 (Анатолий Рыбаков) [1956 г., Детектив] DVD5

Reply to topic
 
Author
Message

Omen ®

Longevity: 6 years 5 months

Posts: 181112

Торрент-статистика

Post 08-Feb-2012 18:30

[Quote]

Дело N 306 (1956) DVD5- Русское название: Дело N 306
Год выпуска: 1956
Жанр: Детектив
Описание фильма:
Приключенческий фильм о работниках советской милиции, которые в простом уличном происшествии города Москвы
сумели разгадать действия агентов иностранной разведки. На одной из московских улиц легковой машиной сбита пожилая
женщина, а затем и постовой милиционер, пытавшийся задержать машину. У тяжело раненой женщины никаких документов не
обнаружено, постовой милиционер скончался. Несмотря на отсутствие улик, работники уголовного розыска приступают к
тщательному расследованию этого дела…

Режиссер: Анатолий Рыбаков
Актеры: Борис Битюков, Марк Бернес, Татьяна Пилецкая, Константин Нассонов, Ада Войцик, Максим Штраух, Людмила Шагалова, Евгений Весник, Валентина Токарская, Евгений Тетерин, Н.Хощанов, Софья Фадеева, Владимир Ратомский, Анастасия Зуева, Виктор Колпаков
Продолжительность: 01:16:41- -Видеокодек: MPEG Video 2
Битрейт видео: ~ 6447 Кбит/сек
Размер кадра: PAL 4:3 (720x576)@(768x576) VBR
Качество видео: DVD5
Аудиокодек: AC3 Dolby Digital, 2/0 (L,R) ch
Битрейт аудио: 256 kbps
-

mediainfo

Общее
Полное имя : C:\Users\1\Downloads\Delo.nomer.306.1956.DVD-5\VIDEO_TS\VIDEO_TS.BUP
Формат : DVD Video
Профиль формата : Menu
Размер файла : 14,0 Кбайт
Режим общего битрейта : Переменный
Видео
Идентификатор : 224 (0xE0)
Формат : MPEG Video
Версия формата : Version 2
Вид битрейта : Переменный
Ширина : 720 пикселей
Высота : 576 пикселей
Соотношение сторон : 4:3
Частота кадров : 25,000 кадров/сек
Стандарт вещания : PAL
Метод сжатия : С потерями
Текст
Формат : RLE
Формат/Информация : Run-length encoding
Битовая глубина : 2 бит
Общее
Полное имя : C:\Users\1\Downloads\Delo.nomer.306.1956.DVD-5\VIDEO_TS\VIDEO_TS.IFO
Формат : DVD Video
Профиль формата : Menu
Размер файла : 14,0 Кбайт
Режим общего битрейта : Переменный
Видео
Идентификатор : 224 (0xE0)
Формат : MPEG Video
Версия формата : Version 2
Вид битрейта : Переменный
Ширина : 720 пикселей
Высота : 576 пикселей
Соотношение сторон : 4:3
Частота кадров : 25,000 кадров/сек
Стандарт вещания : PAL
Метод сжатия : С потерями
Текст
Формат : RLE
Формат/Информация : Run-length encoding
Битовая глубина : 2 бит
Общее
Полное имя : C:\Users\1\Downloads\Delo.nomer.306.1956.DVD-5\VIDEO_TS\VIDEO_TS.VOB
Формат : MPEG-PS
Размер файла : 154 Кбайт
Продолжительность : 520 мс.
Общий поток : 2426 Кбит/сек
Видео
Идентификатор : 224 (0xE0)
Формат : MPEG Video
Версия формата : Version 2
Профиль формата : [email protected]
Параметр BVOP формата : Да
Параметр матрицы формата : Выборочная
Продолжительность : 520 мс.
Максимальный битрейт : 2000 Кбит/сек
Ширина : 720 пикселей
Высота : 576 пикселей
Соотношение сторон : 4:3
Частота кадров : 25,000 кадров/сек
Стандарт вещания : PAL
Цветовое пространство : YUV
Субдискретизация насыщенности : 4:2:0
Битовая глубина : 8 бит
Тип развёртки : Чересстрочная
Порядок развёртки : Верхнее поле первое
Метод сжатия : С потерями
Текст
Идентификатор : 189 (0xBD)-32 (0x20)
Формат : RLE
Формат/Информация : Run-length encoding
Режим смешивания : DVD-Video
Задержка видео : -80 мс.
Меню
Общее
Полное имя : C:\Users\1\Downloads\Delo.nomer.306.1956.DVD-5\VIDEO_TS\VTS_01_0.BUP
Формат : DVD Video
Профиль формата : Program
Размер файла : 22,0 Кбайт
Продолжительность : 9 с. 600 мс.
Режим общего битрейта : Переменный
Общий поток : 18,8 Кбит/сек
Видео
Идентификатор : 224 (0xE0)
Формат : MPEG Video
Версия формата : Version 2
Продолжительность : 9 с. 600 мс.
Вид битрейта : Переменный
Ширина : 720 пикселей
Высота : 576 пикселей
Соотношение сторон : 4:3
Частота кадров : 25,000 кадров/сек
Стандарт вещания : PAL
Метод сжатия : С потерями
Аудио #1
Формат : AC-3
Формат/Информация : Audio Coding 3
Продолжительность : 9 с. 600 мс.
Каналы : 6 каналов
Частота : 48,0 КГц
Метод сжатия : С потерями
Язык : English
Аудио #2
Формат : AC-3
Формат/Информация : Audio Coding 3
Продолжительность : 9 с. 600 мс.
Каналы : 6 каналов
Частота : 48,0 КГц
Метод сжатия : С потерями
Язык : English
Аудио #3
Формат : AC-3
Формат/Информация : Audio Coding 3
Продолжительность : 9 с. 600 мс.
Каналы : 6 каналов
Частота : 48,0 КГц
Метод сжатия : С потерями
Язык : English
Аудио #4
Формат : AC-3
Формат/Информация : Audio Coding 3
Продолжительность : 9 с. 600 мс.
Каналы : 6 каналов
Частота : 48,0 КГц
Метод сжатия : С потерями
Язык : English
Аудио #5
Формат : AC-3
Формат/Информация : Audio Coding 3
Продолжительность : 9 с. 600 мс.
Каналы : 6 каналов
Частота : 48,0 КГц
Метод сжатия : С потерями
Язык : English
Аудио #6
Формат : AC-3
Формат/Информация : Audio Coding 3
Продолжительность : 9 с. 600 мс.
Каналы : 6 каналов
Частота : 48,0 КГц
Метод сжатия : С потерями
Язык : English
Аудио #7
Формат : AC-3
Формат/Информация : Audio Coding 3
Продолжительность : 9 с. 600 мс.
Каналы : 6 каналов
Частота : 48,0 КГц
Метод сжатия : С потерями
Язык : English
Аудио #8
Формат : AC-3
Формат/Информация : Audio Coding 3
Продолжительность : 9 с. 600 мс.
Каналы : 6 каналов
Частота : 48,0 КГц
Метод сжатия : С потерями
Язык : English
Текст #1
Формат : RLE
Формат/Информация : Run-length encoding
Битовая глубина : 2 бит
Текст #2
Формат : RLE
Формат/Информация : Run-length encoding
Битовая глубина : 2 бит
Текст #3
Формат : RLE
Формат/Информация : Run-length encoding
Битовая глубина : 2 бит
Текст #4
Формат : RLE
Формат/Информация : Run-length encoding
Битовая глубина : 2 бит
Текст #5
Формат : RLE
Формат/Информация : Run-length encoding
Битовая глубина : 2 бит
Текст #6
Формат : RLE
Формат/Информация : Run-length encoding
Битовая глубина : 2 бит
Текст #7
Формат : RLE
Формат/Информация : Run-length encoding
Битовая глубина : 2 бит
Текст #8
Формат : RLE
Формат/Информация : Run-length encoding
Битовая глубина : 2 бит
Текст #9
Формат : RLE
Формат/Информация : Run-length encoding
Битовая глубина : 2 бит
Текст #10
Формат : RLE
Формат/Информация : Run-length encoding
Битовая глубина : 2 бит
Текст #11
Формат : RLE
Формат/Информация : Run-length encoding
Битовая глубина : 2 бит
Текст #12
Формат : RLE
Формат/Информация : Run-length encoding
Битовая глубина : 2 бит
Текст #13
Формат : RLE
Формат/Информация : Run-length encoding
Битовая глубина : 2 бит
Текст #14
Формат : RLE
Формат/Информация : Run-length encoding
Битовая глубина : 2 бит
Текст #15
Формат : RLE
Формат/Информация : Run-length encoding
Битовая глубина : 2 бит
Текст #16
Формат : RLE
Формат/Информация : Run-length encoding
Битовая глубина : 2 бит
Текст #17
Формат : RLE
Формат/Информация : Run-length encoding
Битовая глубина : 2 бит
Текст #18
Формат : RLE
Формат/Информация : Run-length encoding
Битовая глубина : 2 бит
Текст #19
Формат : RLE
Формат/Информация : Run-length encoding
Битовая глубина : 2 бит
Текст #20
Формат : RLE
Формат/Информация : Run-length encoding
Битовая глубина : 2 бит
Текст #21
Формат : RLE
Формат/Информация : Run-length encoding
Битовая глубина : 2 бит
Текст #22
Формат : RLE
Формат/Информация : Run-length encoding
Битовая глубина : 2 бит
Текст #23
Формат : RLE
Формат/Информация : Run-length encoding
Битовая глубина : 2 бит
Текст #24
Формат : RLE
Формат/Информация : Run-length encoding
Битовая глубина : 2 бит
Текст #25
Формат : RLE
Формат/Информация : Run-length encoding
Битовая глубина : 2 бит
Текст #26
Формат : RLE
Формат/Информация : Run-length encoding
Битовая глубина : 2 бит
Текст #27
Формат : RLE
Формат/Информация : Run-length encoding
Битовая глубина : 2 бит
Текст #28
Формат : RLE
Формат/Информация : Run-length encoding
Битовая глубина : 2 бит
Текст #29
Формат : RLE
Формат/Информация : Run-length encoding
Битовая глубина : 2 бит
Текст #30
Формат : RLE
Формат/Информация : Run-length encoding
Битовая глубина : 2 бит
Текст #31
Формат : RLE
Формат/Информация : Run-length encoding
Битовая глубина : 2 бит
Текст #32
Формат : RLE
Формат/Информация : Run-length encoding
Битовая глубина : 2 бит
Меню
Продолжительность : 9 с. 600 мс.
00:00:00.000 : Chapter 1
Общее
Полное имя : C:\Users\1\Downloads\Delo.nomer.306.1956.DVD-5\VIDEO_TS\VTS_01_0.IFO
Формат : DVD Video
Профиль формата : Program
Размер файла : 22,0 Кбайт
Продолжительность : 9 с. 600 мс.
Режим общего битрейта : Переменный
Общий поток : 18,8 Кбит/сек
Видео
Идентификатор : 224 (0xE0)
Формат : MPEG Video
Версия формата : Version 2
Продолжительность : 9 с. 600 мс.
Вид битрейта : Переменный
Ширина : 720 пикселей
Высота : 576 пикселей
Соотношение сторон : 4:3
Частота кадров : 25,000 кадров/сек
Стандарт вещания : PAL
Метод сжатия : С потерями
Аудио #1
Формат : AC-3
Формат/Информация : Audio Coding 3
Продолжительность : 9 с. 600 мс.
Каналы : 6 каналов
Частота : 48,0 КГц
Метод сжатия : С потерями
Язык : English
Аудио #2
Формат : AC-3
Формат/Информация : Audio Coding 3
Продолжительность : 9 с. 600 мс.
Каналы : 6 каналов
Частота : 48,0 КГц
Метод сжатия : С потерями
Язык : English
Аудио #3
Формат : AC-3
Формат/Информация : Audio Coding 3
Продолжительность : 9 с. 600 мс.
Каналы : 6 каналов
Частота : 48,0 КГц
Метод сжатия : С потерями
Язык : English
Аудио #4
Формат : AC-3
Формат/Информация : Audio Coding 3
Продолжительность : 9 с. 600 мс.
Каналы : 6 каналов
Частота : 48,0 КГц
Метод сжатия : С потерями
Язык : English
Аудио #5
Формат : AC-3
Формат/Информация : Audio Coding 3
Продолжительность : 9 с. 600 мс.
Каналы : 6 каналов
Частота : 48,0 КГц
Метод сжатия : С потерями
Язык : English
Аудио #6
Формат : AC-3
Формат/Информация : Audio Coding 3
Продолжительность : 9 с. 600 мс.
Каналы : 6 каналов
Частота : 48,0 КГц
Метод сжатия : С потерями
Язык : English
Аудио #7
Формат : AC-3
Формат/Информация : Audio Coding 3
Продолжительность : 9 с. 600 мс.
Каналы : 6 каналов
Частота : 48,0 КГц
Метод сжатия : С потерями
Язык : English
Аудио #8
Формат : AC-3
Формат/Информация : Audio Coding 3
Продолжительность : 9 с. 600 мс.
Каналы : 6 каналов
Частота : 48,0 КГц
Метод сжатия : С потерями
Язык : English
Текст #1
Формат : RLE
Формат/Информация : Run-length encoding
Битовая глубина : 2 бит
Текст #2
Формат : RLE
Формат/Информация : Run-length encoding
Битовая глубина : 2 бит
Текст #3
Формат : RLE
Формат/Информация : Run-length encoding
Битовая глубина : 2 бит
Текст #4
Формат : RLE
Формат/Информация : Run-length encoding
Битовая глубина : 2 бит
Текст #5
Формат : RLE
Формат/Информация : Run-length encoding
Битовая глубина : 2 бит
Текст #6
Формат : RLE
Формат/Информация : Run-length encoding
Битовая глубина : 2 бит
Текст #7
Формат : RLE
Формат/Информация : Run-length encoding
Битовая глубина : 2 бит
Текст #8
Формат : RLE
Формат/Информация : Run-length encoding
Битовая глубина : 2 бит
Текст #9
Формат : RLE
Формат/Информация : Run-length encoding
Битовая глубина : 2 бит
Текст #10
Формат : RLE
Формат/Информация : Run-length encoding
Битовая глубина : 2 бит
Текст #11
Формат : RLE
Формат/Информация : Run-length encoding
Битовая глубина : 2 бит
Текст #12
Формат : RLE
Формат/Информация : Run-length encoding
Битовая глубина : 2 бит
Текст #13
Формат : RLE
Формат/Информация : Run-length encoding
Битовая глубина : 2 бит
Текст #14
Формат : RLE
Формат/Информация : Run-length encoding
Битовая глубина : 2 бит
Текст #15
Формат : RLE
Формат/Информация : Run-length encoding
Битовая глубина : 2 бит
Текст #16
Формат : RLE
Формат/Информация : Run-length encoding
Битовая глубина : 2 бит
Текст #17
Формат : RLE
Формат/Информация : Run-length encoding
Битовая глубина : 2 бит
Текст #18
Формат : RLE
Формат/Информация : Run-length encoding
Битовая глубина : 2 бит
Текст #19
Формат : RLE
Формат/Информация : Run-length encoding
Битовая глубина : 2 бит
Текст #20
Формат : RLE
Формат/Информация : Run-length encoding
Битовая глубина : 2 бит
Текст #21
Формат : RLE
Формат/Информация : Run-length encoding
Битовая глубина : 2 бит
Текст #22
Формат : RLE
Формат/Информация : Run-length encoding
Битовая глубина : 2 бит
Текст #23
Формат : RLE
Формат/Информация : Run-length encoding
Битовая глубина : 2 бит
Текст #24
Формат : RLE
Формат/Информация : Run-length encoding
Битовая глубина : 2 бит
Текст #25
Формат : RLE
Формат/Информация : Run-length encoding
Битовая глубина : 2 бит
Текст #26
Формат : RLE
Формат/Информация : Run-length encoding
Битовая глубина : 2 бит
Текст #27
Формат : RLE
Формат/Информация : Run-length encoding
Битовая глубина : 2 бит
Текст #28
Формат : RLE
Формат/Информация : Run-length encoding
Битовая глубина : 2 бит
Текст #29
Формат : RLE
Формат/Информация : Run-length encoding
Битовая глубина : 2 бит
Текст #30
Формат : RLE
Формат/Информация : Run-length encoding
Битовая глубина : 2 бит
Текст #31
Формат : RLE
Формат/Информация : Run-length encoding
Битовая глубина : 2 бит
Текст #32
Формат : RLE
Формат/Информация : Run-length encoding
Битовая глубина : 2 бит
Меню
Продолжительность : 9 с. 600 мс.
00:00:00.000 : Chapter 1
Общее
Полное имя : C:\Users\1\Downloads\Delo.nomer.306.1956.DVD-5\VIDEO_TS\VTS_01_0.VOB
Формат : MPEG-PS
Размер файла : 52,0 Мбайт
Продолжительность : 19 с.
Режим общего битрейта : Переменный
Общий поток : 22,2 Мбит/сек
Видео
Идентификатор : 224 (0xE0)
Формат : MPEG Video
Версия формата : Version 2
Профиль формата : [email protected]
Параметр BVOP формата : Да
Параметр матрицы формата : По умолчанию
Параметр GOP формата : M=3, N=12
Продолжительность : 19 с.
Вид битрейта : Переменный
Битрейт : 21,5 Мбит/сек
Максимальный битрейт : 8000 Кбит/сек
Ширина : 720 пикселей
Высота : 576 пикселей
Соотношение сторон : 4:3
Частота кадров : 25,000 кадров/сек
Стандарт вещания : PAL
Цветовое пространство : YUV
Субдискретизация насыщенности : 4:2:0
Битовая глубина : 8 бит
Тип развёртки : Чересстрочная
Порядок развёртки : Нижнее поле первое
Метод сжатия : С потерями
Бит/(Пиксели*Кадры) : 2.070
Размер потока : 50,3 Мбайт (97%)
Аудио
Идентификатор : 189 (0xBD)-128 (0x80)
Формат : AC-3
Формат/Информация : Audio Coding 3
Расширение режима : CM (complete main)
Режим смешивания : DVD-Video
Продолжительность : 19 с.
Вид битрейта : Постоянный
Битрейт : 256 Кбит/сек
Каналы : 2 канала
Расположение каналов : Front: L R
Частота : 48,0 КГц
Битовая глубина : 16 бит
Метод сжатия : С потерями
Размер потока : 614 Кбайт (1%)
Текст
Идентификатор : 189 (0xBD)-32 (0x20)
Формат : RLE
Формат/Информация : Run-length encoding
Режим смешивания : DVD-Video
Меню
Общее
Полное имя : C:\Users\1\Downloads\Delo.nomer.306.1956.DVD-5\VIDEO_TS\VTS_01_1.VOB
Формат : MPEG-PS
Размер файла : 9,24 Мбайт
Продолжительность : 9 с. 520 мс.
Режим общего битрейта : Переменный
Общий поток : 8140 Кбит/сек
Видео
Идентификатор : 224 (0xE0)
Формат : MPEG Video
Версия формата : Version 2
Профиль формата : [email protected]
Параметр BVOP формата : Да
Параметр матрицы формата : Выборочная
Параметр GOP формата : M=3, N=12
Продолжительность : 9 с. 520 мс.
Вид битрейта : Переменный
Битрейт : 7978 Кбит/сек
Максимальный битрейт : 9000 Кбит/сек
Ширина : 720 пикселей
Высота : 576 пикселей
Соотношение сторон : 4:3
Частота кадров : 25,000 кадров/сек
Стандарт вещания : PAL
Цветовое пространство : YUV
Субдискретизация насыщенности : 4:2:0
Битовая глубина : 8 бит
Тип развёртки : Чересстрочная
Порядок развёртки : Верхнее поле первое
Метод сжатия : С потерями
Бит/(Пиксели*Кадры) : 0.770
Размер потока : 9,05 Мбайт (98%)
Меню
Общее
Полное имя : C:\Users\1\Downloads\Delo.nomer.306.1956.DVD-5\VIDEO_TS\VTS_02_0.BUP
Формат : DVD Video
Профиль формата : Program
Размер файла : 58,0 Кбайт
Продолжительность : 1 ч. 16 м.
Режим общего битрейта : Переменный
Общий поток : 103 бит/сек
Видео
Идентификатор : 224 (0xE0)
Формат : MPEG Video
Версия формата : Version 2
Продолжительность : 1 ч. 16 м.
Вид битрейта : Переменный
Ширина : 720 пикселей
Высота : 576 пикселей
Соотношение сторон : 4:3
Частота кадров : 25,000 кадров/сек
Стандарт вещания : PAL
Метод сжатия : С потерями
Аудио
Идентификатор : 128 (0x80)
Формат : AC-3
Формат/Информация : Audio Coding 3
Продолжительность : 1 ч. 16 м.
Каналы : 2 канала
Частота : 48,0 КГц
Метод сжатия : С потерями
Язык : Russian
Меню
Продолжительность : 1 ч. 16 м.
00:00:00.000 : Chapter 1
00:07:59.520 : Chapter 2
00:12:50.400 : Chapter 3
00:19:48.480 : Chapter 4
00:28:36.480 : Chapter 5
00:35:25.920 : Chapter 6
00:40:16.800 : Chapter 7
00:45:26.880 : Chapter 8
00:54:53.280 : Chapter 9
01:04:25.920 : Chapter 10
01:07:20.640 : Chapter 11
01:11:14.880 : Chapter 12
List (Audio) : 0
Общее
Полное имя : C:\Users\1\Downloads\Delo.nomer.306.1956.DVD-5\VIDEO_TS\VTS_02_0.IFO
Формат : DVD Video
Профиль формата : Program
Размер файла : 58,0 Кбайт
Продолжительность : 1 ч. 16 м.
Режим общего битрейта : Переменный
Общий поток : 103 бит/сек
Видео
Идентификатор : 224 (0xE0)
Формат : MPEG Video
Версия формата : Version 2
Продолжительность : 1 ч. 16 м.
Вид битрейта : Переменный
Ширина : 720 пикселей
Высота : 576 пикселей
Соотношение сторон : 4:3
Частота кадров : 25,000 кадров/сек
Стандарт вещания : PAL
Метод сжатия : С потерями
Аудио
Идентификатор : 128 (0x80)
Формат : AC-3
Формат/Информация : Audio Coding 3
Продолжительность : 1 ч. 16 м.
Каналы : 2 канала
Частота : 48,0 КГц
Метод сжатия : С потерями
Язык : Russian
Меню
Продолжительность : 1 ч. 16 м.
00:00:00.000 : Chapter 1
00:07:59.520 : Chapter 2
00:12:50.400 : Chapter 3
00:19:48.480 : Chapter 4
00:28:36.480 : Chapter 5
00:35:25.920 : Chapter 6
00:40:16.800 : Chapter 7
00:45:26.880 : Chapter 8
00:54:53.280 : Chapter 9
01:04:25.920 : Chapter 10
01:07:20.640 : Chapter 11
01:11:14.880 : Chapter 12
List (Audio) : 0
Общее
Полное имя : C:\Users\1\Downloads\Delo.nomer.306.1956.DVD-5\VIDEO_TS\VTS_02_0.VOB
Формат : MPEG-PS
Размер файла : 154 Кбайт
Продолжительность : 520 мс.
Общий поток : 2426 Кбит/сек
Видео
Идентификатор : 224 (0xE0)
Формат : MPEG Video
Версия формата : Version 2
Профиль формата : [email protected]
Параметр BVOP формата : Да
Параметр матрицы формата : Выборочная
Продолжительность : 520 мс.
Максимальный битрейт : 2000 Кбит/сек
Ширина : 720 пикселей
Высота : 576 пикселей
Соотношение сторон : 4:3
Частота кадров : 25,000 кадров/сек
Стандарт вещания : PAL
Цветовое пространство : YUV
Субдискретизация насыщенности : 4:2:0
Битовая глубина : 8 бит
Тип развёртки : Чересстрочная
Порядок развёртки : Верхнее поле первое
Метод сжатия : С потерями
Текст
Идентификатор : 189 (0xBD)-32 (0x20)
Формат : RLE
Формат/Информация : Run-length encoding
Режим смешивания : DVD-Video
Задержка видео : -80 мс.
Меню
Общее
Полное имя : C:\Users\1\Downloads\Delo.nomer.306.1956.DVD-5\VIDEO_TS\VTS_02_1.VOB
Формат : MPEG-PS
Размер файла : 1024 Мбайт
Продолжительность : 20 м.
Режим общего битрейта : Переменный
Общий поток : 6839 Кбит/сек
Видео
Идентификатор : 224 (0xE0)
Формат : MPEG Video
Версия формата : Version 2
Профиль формата : [email protected]
Параметр BVOP формата : Да
Параметр матрицы формата : По умолчанию
Параметр GOP формата : M=3, N=12
Продолжительность : 20 м.
Вид битрейта : Переменный
Битрейт : 6447 Кбит/сек
Максимальный битрейт : 8400 Кбит/сек
Ширина : 720 пикселей
Высота : 576 пикселей
Соотношение сторон : 4:3
Частота кадров : 25,000 кадров/сек
Стандарт вещания : PAL
Цветовое пространство : YUV
Субдискретизация насыщенности : 4:2:0
Битовая глубина : 8 бит
Тип развёртки : Чересстрочная
Порядок развёртки : Верхнее поле первое
Метод сжатия : С потерями
Бит/(Пиксели*Кадры) : 0.622
Размер потока : 965 Мбайт (94%)
Основные цвета : BT.470-2 System B, BT.470-2 System G
Характеристики трансфера : BT.470-2 System B, BT.470-2 System G
Коэффициенты матрицы : BT.470-2 System B, BT.470-2 System G
Аудио
Идентификатор : 189 (0xBD)-128 (0x80)
Формат : AC-3
Формат/Информация : Audio Coding 3
Расширение режима : CM (complete main)
Режим смешивания : DVD-Video
Продолжительность : 20 м.
Вид битрейта : Постоянный
Битрейт : 256 Кбит/сек
Каналы : 2 канала
Расположение каналов : Front: L R
Частота : 48,0 КГц
Битовая глубина : 16 бит
Метод сжатия : С потерями
Задержка видео : -80 мс.
Размер потока : 38,3 Мбайт (4%)
Меню
Общее
Полное имя : C:\Users\1\Downloads\Delo.nomer.306.1956.DVD-5\VIDEO_TS\VTS_02_2.VOB
Формат : MPEG-PS
Размер файла : 1024 Мбайт
Продолжительность : 21 м.
Режим общего битрейта : Переменный
Общий поток : 6784 Кбит/сек
Видео
Идентификатор : 224 (0xE0)
Формат : MPEG Video
Версия формата : Version 2
Профиль формата : [email protected]
Параметр BVOP формата : Да
Параметр матрицы формата : По умолчанию
Параметр GOP формата : M=3, N=12
Продолжительность : 21 м.
Вид битрейта : Переменный
Битрейт : 6393 Кбит/сек
Максимальный битрейт : 8400 Кбит/сек
Ширина : 720 пикселей
Высота : 576 пикселей
Соотношение сторон : 4:3
Частота кадров : 25,000 кадров/сек
Стандарт вещания : PAL
Цветовое пространство : YUV
Субдискретизация насыщенности : 4:2:0
Битовая глубина : 8 бит
Тип развёртки : Чересстрочная
Порядок развёртки : Верхнее поле первое
Метод сжатия : С потерями
Бит/(Пиксели*Кадры) : 0.617
Размер потока : 965 Мбайт (94%)
Основные цвета : BT.470-2 System B, BT.470-2 System G
Характеристики трансфера : BT.470-2 System B, BT.470-2 System G
Коэффициенты матрицы : BT.470-2 System B, BT.470-2 System G
Аудио
Идентификатор : 189 (0xBD)-128 (0x80)
Формат : AC-3
Формат/Информация : Audio Coding 3
Расширение режима : CM (complete main)
Режим смешивания : DVD-Video
Продолжительность : 21 м.
Вид битрейта : Постоянный
Битрейт : 256 Кбит/сек
Каналы : 2 канала
Расположение каналов : Front: L R
Частота : 48,0 КГц
Битовая глубина : 16 бит
Метод сжатия : С потерями
Задержка видео : -560 мс.
Размер потока : 38,6 Мбайт (4%)
Меню
Общее
Полное имя : C:\Users\1\Downloads\Delo.nomer.306.1956.DVD-5\VIDEO_TS\VTS_02_3.VOB
Формат : MPEG-PS
Размер файла : 1024 Мбайт
Продолжительность : 21 м.
Режим общего битрейта : Переменный
Общий поток : 6792 Кбит/сек
Видео
Идентификатор : 224 (0xE0)
Формат : MPEG Video
Версия формата : Version 2
Профиль формата : [email protected]
Параметр BVOP формата : Да
Параметр матрицы формата : По умолчанию
Параметр GOP формата : M=3, N=12
Продолжительность : 21 м.
Вид битрейта : Переменный
Битрейт : 6401 Кбит/сек
Максимальный битрейт : 8400 Кбит/сек
Ширина : 720 пикселей
Высота : 576 пикселей
Соотношение сторон : 4:3
Частота кадров : 25,000 кадров/сек
Стандарт вещания : PAL
Цветовое пространство : YUV
Субдискретизация насыщенности : 4:2:0
Битовая глубина : 8 бит
Тип развёртки : Чересстрочная
Порядок развёртки : Верхнее поле первое
Метод сжатия : С потерями
Бит/(Пиксели*Кадры) : 0.617
Размер потока : 965 Мбайт (94%)
Основные цвета : BT.470-2 System B, BT.470-2 System G
Характеристики трансфера : BT.470-2 System B, BT.470-2 System G
Коэффициенты матрицы : BT.470-2 System B, BT.470-2 System G
Аудио
Идентификатор : 189 (0xBD)-128 (0x80)
Формат : AC-3
Формат/Информация : Audio Coding 3
Расширение режима : CM (complete main)
Режим смешивания : DVD-Video
Продолжительность : 21 м.
Вид битрейта : Постоянный
Битрейт : 256 Кбит/сек
Каналы : 2 канала
Расположение каналов : Front: L R
Частота : 48,0 КГц
Битовая глубина : 16 бит
Метод сжатия : С потерями
Задержка видео : -336 мс.
Размер потока : 38,6 Мбайт (4%)
Меню
Общее
Полное имя : C:\Users\1\Downloads\Delo.nomer.306.1956.DVD-5\VIDEO_TS\VTS_02_4.VOB
Формат : MPEG-PS
Размер файла : 659 Мбайт
Продолжительность : 13 м.
Режим общего битрейта : Переменный
Общий поток : 6786 Кбит/сек
Видео
Идентификатор : 224 (0xE0)
Формат : MPEG Video
Версия формата : Version 2
Профиль формата : [email protected]
Параметр BVOP формата : Да
Параметр матрицы формата : По умолчанию
Параметр GOP формата : M=3, N=12
Продолжительность : 13 м.
Вид битрейта : Переменный
Битрейт : 6395 Кбит/сек
Максимальный битрейт : 8400 Кбит/сек
Ширина : 720 пикселей
Высота : 576 пикселей
Соотношение сторон : 4:3
Частота кадров : 25,000 кадров/сек
Стандарт вещания : PAL
Цветовое пространство : YUV
Субдискретизация насыщенности : 4:2:0
Битовая глубина : 8 бит
Тип развёртки : Чересстрочная
Порядок развёртки : Верхнее поле первое
Метод сжатия : С потерями
Бит/(Пиксели*Кадры) : 0.617
Размер потока : 621 Мбайт (94%)
Основные цвета : BT.470-2 System B, BT.470-2 System G
Характеристики трансфера : BT.470-2 System B, BT.470-2 System G
Коэффициенты матрицы : BT.470-2 System B, BT.470-2 System G
Аудио
Идентификатор : 189 (0xBD)-128 (0x80)
Формат : AC-3
Формат/Информация : Audio Coding 3
Расширение режима : CM (complete main)
Режим смешивания : DVD-Video
Продолжительность : 13 м.
Вид битрейта : Постоянный
Битрейт : 256 Кбит/сек
Каналы : 2 канала
Расположение каналов : Front: L R
Частота : 48,0 КГц
Битовая глубина : 16 бит
Метод сжатия : С потерями
Задержка видео : -560 мс.
Размер потока : 24,8 Мбайт (4%)
Меню
Скриншоты:
          
Other forum [Profile] [PM]
Display posts from previous:    
Reply to topic

The time now is: Today 13:56

All times are GMT + 3 Hours



You cannot post new topics in this forum
You cannot reply to topics in this forum
You cannot edit your posts in this forum
You cannot delete your posts in this forum
You cannot vote in polls in this forum
You cannot attach files in this forum
You cannot download files in this forum