Сегодня идет свободное скачивание без начисления Download

Старомодная комедия (Э. Савельева, Т. Березанцева) [1978 г., мелодрама/комедия, DVD5]

Ответить на тему
 
Автор
Сообщение

Omen ®

Стаж: 6 лет

Сообщений: 184329

Торрент-статистика

Пост 08-Фев-2012 18:30

[Цитировать]

Старомодная комедия- Русское название: Старомодная комедия
Оригинальное название: Старомодная комедия
Год выпуска: 1978
Производство: СССР
Жанр: мелодрама, комедия
Перевод: не требуется
Субтитры: отсутствуют
Режиссер: Эра Савельева, Татьяна Березанцева
Актеры: Алиса Фрейндлих, Игорь Владимиров, Галина Беседина
Описание фильма:
Действие происходит в Прибалтике в санатории. Он — главный врач. Она — бывшая цирковая артистка. Встреча двух немолодых людей превращается в дружбу и взаимную симпатию.- -Дата мировой премьеры: 11 февраля 1980
Дата выхода DVD релиза: 24 сентября 2009, «Мастер Тэйп»-Продолжительность: 01:29:00
Качество видео: DVD5
Видеокодек: MPEG 2
Битрейт видео: 5988 Кбит/сек
Размер кадра: PAL 4:3 (720x576)@(768x576) VBR
Аудио: Русский, Dolby AC3, 2 ch, 192 Кбит/сек
Дополнительные материалы на диске: "Мосфильм вчера и сегодня"-

DVDInfo

Код:
Title: Старомодная комедия (1978) DVD5
Size: 4.36 Gb ( 4 571 514,00 KBytes ) - DVD-5
Enabled regions: 1, 2, 3, 4, 5, 6, 7, 8
VTS_01 :
Play Length: 00:00:17
Video: PAL 4:3 (720x576)@(768x576) VBR
VTS_02 :
Play Length: 00:07:49+{00:07:49}+{00:07:49}
Video: PAL 16:9 (720x576) VBR, Auto Letterboxed
Audio:
Russian (Dolby AC3, 2 ch)
VTS_03 :
Play Length: 01:29:00+{01:29:00}+{01:29:00}
Video: PAL 4:3 (720x576) VBR
Audio:
Russian (Dolby AC3, 2 ch)
* Menus Information *
VIDEO_TS Menu
Video:
PAL 4:3 (720x576) VBR
English Language Unit :
Title Menu
VTS_01 Menu
Video:
PAL 4:3 (720x576) VBR
Audio:
Not specified (Dolby AC3, 2 ch)
English Language Unit :
Root Menu
VTS_02 Menu
Video:
PAL 16:9 (720x576) VBR
Auto Letterboxed
Audio:
Not specified (Dolby AC3, 2 ch)
English Language Unit :
Root Menu
VTS_03 Menu
Video:
PAL 4:3 (720x576) VBR
English Language Unit :
Root Menu
-

MediaInfo

Код:
Общее
Полное имя                       : F:\Раздачи\Старомодная комедия (1978) DVD5\VIDEO_TS\VTS_03_1.VOB
Формат                           : MPEG-PS
Размер файла                     : 1024 Мбайт
Продолжительность                : 22 м.
Общий поток                      : 6305 Кбит/сек
Видео
Идентификатор                    : 224 (0xE0)
Формат                           : MPEG Video
Версия формата                   : Version 2
Профиль формата                  : [email protected]
Параметр BVOP формата            : Да
Параметр матрицы формата         : Выборочная
Продолжительность                : 22 м.
Битрейт                          : 5988 Кбит/сек
Максимальный битрейт             : 6000 Кбит/сек
Ширина                           : 720 пикселей
Высота                           : 576 пикселей
Соотношение сторон               : 4:3
Частота кадров                   : 25,000 кадров/сек
Стандарт вещания                 : PAL
Цветовое пространство            : YUV
Субдискретизация насыщенности    : 4:2:0
Битовая глубина                  : 8 бит
Тип развёртки                    : Чересстрочная
Порядок развёртки                : Нижнее поле первое
Метод сжатия                     : С потерями
Бит/(Пиксели*Кадры)              : 0.577
Размер потока                    : 972 Мбайт (95%)
Аудио
Идентификатор                    : 189 (0xBD)-128 (0x80)
Формат                           : AC-3
Формат/Информация                : Audio Coding 3
Расширение режима                : CM (complete main)
Режим смешивания                 : DVD-Video
Продолжительность                : 22 м.
Вид битрейта                     : Постоянный
Битрейт                          : 192 Кбит/сек
Каналы                           : 2 канала
Расположение каналов             : Front: L R
Частота                          : 48,0 КГц
Битовая глубина                  : 16 бит
Метод сжатия                     : С потерями
Размер потока                    : 31,2 Мбайт (3%)
Меню
-

Скриншоты меню

     
-Скриншоты:
         
         
Вне форума [Профиль] [ЛС]
Показать сообщения:    
Ответить на тему

Текущее время: Сегодня 22:52

Часовой пояс: GMT + 3



Вы не можете начинать темы
Вы не можете отвечать на сообщения
Вы не можете редактировать свои сообщения
Вы не можете удалять свои сообщения
Вы не можете голосовать в опросах
Вы не можете прикреплять файлы к сообщениям
Вы не можете скачивать файлы