Today is a free download without charge Download

Любовь и голуби (Владимир Меньшов) [1984 г., СССР, комедия, мелодрама, BDRip 720p] (Полная реставрация КП)

Reply to topic
 
Author
Message

Omen ®

Longevity: 6 years 5 months

Posts: 181112

Торрент-статистика

Post 08-Feb-2012 18:30

[Quote]

Любовь и голуби - Русское название: Любовь и голуби
Оригинальное название: Любовь и голуби
Год выпуска: 1984
Производство: СССР
Жанр: мелодрама, комедия
Перевод: не требуется
Субтитры: отсутствуют
Режиссер: Владимир Меньшов
Актеры: Александр Михайлов, Нина Дорошина, Людмила Гурченко, Сергей Юрский, Наталья Тенякова, Янина Лисовская, Игорь Лях, Лада Сизоненко, Владимир Меньшов
Описание фильма:
Очень добрая и лиричная комедия о сибиряке (Михайлов), поехавшем отдохнуть на юг и встретившем там свою любовь (Гурченко). А дома, в деревне, у него жена, дети и... голуби, его страсть. Раиса Захаровна полюбила деревенского работягу и одобрила его увлечение голубями.
Вернулся Василий Кузякин с курорта не к себе в деревню, а в дом Раисы Захаровны. Началась для него новая жизнь, в которой было много непонятного и интересного, но не было дома, где остались Надя, дети и голуби...
Лента сверкает юмором, наблюдательностью, ярчайшей обрисовкой всех персонажей. Актеры по-настоящему живут, а не играют свои роли. Одна из лучших комедий советского кинематографа наполнена глубоким чувством и трогательностью.- -Дата мировой премьеры: 7 января 1985
Дата выхода Blu-Ray релиза: 15 декабря 2010, «Парадиз Видео»
Дата выхода DVD релиза: 11 января 2011, «Парадиз Видео»-Продолжительность: 01:44:44
Качество видео: BDRip
Видеокодек: MPEG4 AVC/H.264
Битрейт видео: 5745 Кбит/сек
Размер кадра: 1280x720
Аудио:
Аудио 1: Русский, DTS 5.1, 48 kHz, 1510 Кбит/сек
Аудио 2: Русский, AC3 1.0, 48 kHz, 224 Кбит/сек
Доп. информация: Полная реставрация изображения и звука. Исходные киноматериалы подготовлены Госфильмофондом России. Покадровая цифровая реставрация изображения, ремастеринг звука и авторинг проведены объединением «Крупный план».

Знаете ли вы, что...

* Для того, чтобы в конце картины заснять «расцветающее дерево», был использован знаменитый фокус с тростью, из которой выскакивают цветы. На съёмки был приглашён фокусник, к дереву прикрепили десять подобных тростей, с первого же раза сработали семь из них — кадр был снят с первого дубля.
* Часть монологов Раисы Захаровны об эзотерике и пр. из фильма была вырезана.
* Съемки фильма проходили в Карелии в городе Медвежьегорске.
* Во время съёмок эпизода, когда Василий выпадает из дверей своего дома в море, актёр чуть не погиб. Эпизод снимался так: актёр падал с пирса, под водой его раздевали водолазы, и он выныривал рядом с Гурченко уже в семейных трусах. Первый дубль показался режиссёру медленным, решили снять второй. Во время его съёмок, под водой, возникли проблемы с галстуком, актёр чуть не утонул, галстук пришлось разрезать. В итоге в фильм вошёл третий дубль, в котором разрезанный ранее галстук просто сшили парой стежков.
* Когда Вася ночью заглядывает в окно своего дома, из телевизора звучит знаменитая фраза «В 40 лет жизнь только начинается» из фильма «Москва слезам не верит», предыдущей работы Меньшова.
* По сценарию, Надежда — женщина средних лет, а баба Шура — старуха-пенсионерка. Однако актриса Нина Дорошина, исполнительница роли Надежды, на 10 лет старше Натальи Теняковой, сыгравшей бабу Шуру. На момент съёмок Дорошиной было 50 лет, а Теняковой — только 40.
* Занимает по посещаемости 60-е место среди отечественных фильмов за всю историю советского кинопроката
* Съёмки эпизода купания Раисы Захаровны и Василия велись в ноябре в Батуми (Грузия). Температура воды составляла 14 градусов Цельсия.
* Съёмки фильма велись в Карелии, в городе Медвежьегорске, на окраине города, в доме на берегу реки Кумса.
* Исполнительница роли бабы Шуры Наталья Тенякова - жена исполнителя роли дяди Мити Сергея Юрского.
-

MediaInfo

Код:
[code]Общее
Уникальный идентификатор         : 243833495381255952311745133561101097408 (0xB7709F7E3C0D249992A9A61F482319C0)
Полное имя                       : F:\Раздачи\Любовь и голуби (1984) [720p] BDRip (Полная реставрация КП).mkv
Формат                           : Matroska
Версия формата                   : Version 2
Размер файла                     : 5,47 Гбайт
Продолжительность                : 1 ч. 44 м.
Общий поток                      : 7480 Кбит/сек
Дата кодирования                 : UTC 2011-12-19 18:44:26
Программа кодирования            : mkvmerge v5.1.0 ('And so it goes') built on Nov 28 2011 23:58:28
Библиотека кодирования           : libebml v1.2.3 + libmatroska v1.3.0
Видео
Идентификатор                    : 1
Формат                           : AVC
Формат/Информация                : Advanced Video Codec
Профиль формата                  : [url=mailto:[email protected]][email protected][/url]
Параметр CABAC формата           : Да
Параметр ReFrames формата        : 8 кадров
Идентификатор кодека             : V_MPEG4/ISO/AVC
Продолжительность                : 1 ч. 44 м.
Битрейт                          : 5745 Кбит/сек
Ширина                           : 1280 пикселей
Высота                           : 720 пикселей
Соотношение сторон               : 16:9
Частота кадров                   : 23,976 кадра/сек
Цветовое пространство            : YUV
Субдискретизация насыщенности    : 4:2:0
Битовая глубина                  : 8 бит
Тип развёртки                    : Прогрессивная
Бит/(Пиксели*Кадры)              : 0.260
Размер потока                    : 4,09 Гбайт (75%)
Заголовок                        : Любовь и голуби
Библиотека кодирования           : x264 core 112 r1834 a51816a
Настройки программы              : cabac=1 / ref=8 / deblock=1:-3:-3 / analyse=0x3:0x133 / me=umh / subme=10 / psy=1 / psy_rd=1.00:0.00 / mixed_ref=1 / me_range=32 / chroma_me=1 / trellis=2 / 8x8dct=1 / cqm=0 / deadzone=21,11 / fast_pskip=0 / chroma_qp_offset=-2 / threads=12 / sliced_threads=0 / nr=0 / decimate=0 / interlaced=0 / constrained_intra=0 / bframes=8 / b_pyramid=2 / b_adapt=2 / b_bias=0 / direct=3 / weightb=1 / open_gop=0 / weightp=2 / keyint=250 / keyint_min=23 / scenecut=40 / intra_refresh=0 / rc_lookahead=60 / rc=2pass / mbtree=0 / bitrate=5745 / ratetol=1.0 / qcomp=0.60 / qpmin=10 / qpmax=51 / qpstep=4 / cplxblur=20.0 / qblur=0.5 / vbv_maxrate=50000 / vbv_bufsize=62500 / ip_ratio=1.40 / pb_ratio=1.30 / aq=1:0.80 / nal_hrd=none
Язык                             : Russian
Аудио #1
Идентификатор                    : 2
Формат                           : DTS
Формат/Информация                : Digital Theater Systems
Идентификатор кодека             : A_DTS
Продолжительность                : 1 ч. 44 м.
Вид битрейта                     : Постоянный
Битрейт                          : 1510 Кбит/сек
Каналы                           : 6 каналов
Расположение каналов             : Front: L C R, Side: L R, LFE
Частота                          : 48,0 КГц
Битовая глубина                  : 24 бит
Метод сжатия                     : С потерями
Размер потока                    : 1,10 Гбайт (20%)
Заголовок                        : DTS
Язык                             : Russian
Аудио #2
Идентификатор                    : 3
Формат                           : AC-3
Формат/Информация                : Audio Coding 3
Расширение режима                : CM (complete main)
Идентификатор кодека             : A_AC3
Продолжительность                : 1 ч. 44 м.
Вид битрейта                     : Постоянный
Битрейт                          : 224 Кбит/сек
Каналы                           : 1 канал
Расположение каналов             : Front: C
Частота                          : 48,0 КГц
Битовая глубина                  : 16 бит
Метод сжатия                     : С потерями
Размер потока                    : 168 Мбайт (3%)
Заголовок                        : AC3
Язык                             : Russian
Текст
Идентификатор                    : 4
Формат                           : UTF-8
Идентификатор кодека             : S_TEXT/UTF8
Идентификатор кодека/Информация  : UTF-8 Plain Text
Язык                             : Russian
Меню
00:00:00.000                     : ru:Chapter 01
00:07:08.678                     : ru:Chapter 02
00:13:18.839                     : ru:Chapter 03
00:17:04.982                     : ru:Chapter 04
00:24:56.036                     : ru:Chapter 05
00:33:11.030                     : ru:Chapter 06
00:40:17.790                     : ru:Chapter 07
00:47:41.316                     : ru:Chapter 08
00:52:54.504                     : ru:Chapter 09
00:59:58.094                     : ru:Chapter 10
01:07:48.397                     : ru:Chapter 11
01:17:34.483                     : ru:Chapter 12
01:24:02.245                     : ru:Chapter 13
01:29:57.600                     : ru:Chapter 14
01:34:37.254                     : ru:Chapter 15
01:40:07.209                     : ru:Chapter 16
[/code]
Скриншоты:
     -     -


Last edited by Omen on 2012-02-11 18:04; edited 1 time in total
Other forum [Profile] [PM]

alechalunin

Gender:

Longevity: 8 years 11 months

Posts: 46

Торрент-статистика

Post 11-Feb-2012 15:29 (after 2 days 20 hours)

[Quote]

дайте скачать!!!!!!!!!!!!!!!!!!!!!!!!!!!
Other forum [Profile] [PM]
Similar theme
Forum Topic Author Torrent Replies Last Post
./templates/default/images/folder_dl.gif Приключения и квесты Mahjong Detective: The Stolen Love / Маджонг Детектив. Похищенная Любовь [P] [RUS] (2015) Omen
2 | 0

0 | 1417

23

2015-06-08 21:00
Omen Latest
Display posts from previous:    
Reply to topic

The time now is: Today 15:34

All times are GMT + 3 Hours



You cannot post new topics in this forum
You cannot reply to topics in this forum
You cannot edit your posts in this forum
You cannot delete your posts in this forum
You cannot vote in polls in this forum
You cannot attach files in this forum
You cannot download files in this forum