Today is a free download without charge Download

Рассеянный волшебник (Елизавета и Полина Манохины) [2011, Анимационный фильм, DVDScreener]

Reply to topic
 
Author
Message

Omen ®

Longevity: 7 years 11 months

Posts: 181087

Торрент-статистика

Post 30-Nov-2014 14:01

[Quote]

Рассеянный волшебник
Страна: Россия
Жанр: Анимационный фильм
Продолжительность: 00:07:24
Год выпуска: 2011
Русские субтитры: нет
Режиссёр: Елизавета и Полина Манохины
Описание: Гениальный, но рассеянный учёный превращает лошадь в кошку. В результате получается удивительное существо — Лошокошка. Однажды волшебник вновь возвращает ей прежний облик. Но та ли это лошадь, что была вначале?
Доп. информация: Открытый Фестиваль студенческих и дебютных фильмов «Святая Анна», Москва (Россия), 2012
Открытый фестиваль анимационного кино, Суздаль (Россия), 2012
Большой фестиваль мультфильмов, Москва (Россия), 2012
Московский международный кинофестиваль (ММКФ), Москва (Россия), 2012
Фестиваль анимационных искусств «Мультивидение», Санкт Петербург (Россия), 2012
Фестиваль авторского короткометражного кино "АРТкино", Москва (Россия), 2011
Международный фестиваль-практикум киношкол “Кинопроба”, Екатеринбург (Россия), 2011
Качество: DVDScreener
Формат: AVI
Видео: DIVX, 720x536, 25fps, 1528kbps
Аудио: MPEG Layer 3, 48kHz, 2ch, 192kbps
Субтитры: отсутствуют

Подробные технические данные

Полное имя : Рассеянный волшебник.aviФормат : AVIФормат/Информация : Audio Video InterleaveРазмер файла : 91,7 МбайтПродолжительность : 7 м. 24 с.Общий поток : 1730 Кбит/секПрограмма кодирования : VirtualDubMod 1.5.10.3 | www.virtualdub-fr.org || (build 2550/release)Библиотека кодирования : VirtualDubMod build 2550/release
ВидеоИдентификатор : 0Формат : MPEG-4 VisualПрофиль формата : Advanced [email protected]Параметр BVOP формата : 1Параметр QPel формата : НетПараметр GMC формата : Без точки переходаПараметр матрицы формата : Default (H.263)Идентификатор кодека : DIVXИдентификатор кодека/Информация : Project MayoИдентификатор кодека/Подсказка : DivX 4Продолжительность : 7 м. 24 с.Битрейт : 1528 Кбит/секШирина : 720 пикселейВысота : 536 пикселейСоотношение сторон : 4:3Частота кадров : 25,000 кадров/секЦветовое пространство : YUVСубдискретизация насыщенности : 4:2:0Битовая глубина : 8 битТип развёртки : ПрогрессивнаяМетод сжатия : С потерямиБит/(Пиксели*Кадры) : 0.158Размер потока : 81,0 Мбайт (88%)Библиотека кодирования : XviD 1.2.1 (UTC 2008-12-04)
АудиоИдентификатор : 1Формат : MPEG AudioВерсия формата : Version 1Профиль формата : Layer 3Идентификатор кодека : 55Идентификатор кодека/Подсказка : MP3Продолжительность : 7 м. 24 с.Вид битрейта : ПостоянныйБитрейт : 192 Кбит/секКаналы : 2 каналаЧастота : 48,0 КГцМетод сжатия : С потерямиРазмер потока : 10,2 Мбайт (11%)Выравнивание : Соединение по промежуткамПродолжительность промежутка : 40 мс. (1,00 видеокадр)Время предзагрузки промежутка : 504 мс.Библиотека кодирования : LAME3.99rНастройки программы : -m s -V 4 -q 0 -lowpass 18.6 -b 192

Скриншоты



Other forum [Profile] [PM]
Display posts from previous:    
Reply to topic

The time now is: Today 20:29

All times are GMT + 3 Hours



You cannot post new topics in this forum
You cannot reply to topics in this forum
You cannot edit your posts in this forum
You cannot delete your posts in this forum
You cannot vote in polls in this forum
You cannot attach files in this forum
You cannot download files in this forum