Today is a free download without charge Download

Зима пришла (Василий Шлычков) [2012, анимационный фильм, WEBRip]

Reply to topic
 
Author
Message

Omen ®

Longevity: 8 years 11 months

Posts: 181086

Торрент-статистика

Post 29-Nov-2014 17:01

[Quote]

Зима пришла
Страна: Россия
Жанр: анимационный фильм
Продолжительность: 00:05:39
Год выпуска: 2012
Режиссёр: Василий Шлычков
Музыка: Александр Чирков, Василий Цирин
Описание: Декоративно-музыкальная фантазия на тему "Почему у лисы рыжая шубка".
Доп. информация:
Приз за Лучшее изобразительное решение - Фестиваль анимационного кино в Суздале (2013)
Диплом "За художественное воплощение" - Фестиваль "Анимаевка" (2013)
Приз в категории "Лучший дебютный анимационный фильм" - Фестиваль "Начало" (2013)
Приз "Лучший дебют в анимационном кино" - Кинофестиваль "Лучезарный Ангел" (2013)
Приз "За новизну и фантазию" - Фестиваль "AniFestROZAFA2013" (Албания)
Качество: WEBRip
Формат: AVI
Видео: 1902 kbps, 704х528 (4:3), 25.000 fps, MPEG-4 Visual (XviD)
Аудио: 128 kbps, 44.1 kHz, 2 channels, MPEG Audio (MP3)
Субтитры: отсутствуют

Подробные технические данные

GeneralComplete name : Зима пришла (2012).aviFormat : AVIFormat/Info : Audio Video InterleaveFile size : 82.7 MiBDuration : 5mn 39sOverall bit rate : 2 040 KbpsWriting application : VirtualDubMod 1.5.10.3 (build 2550/release)Writing library : VirtualDubMod build 2550/release
VideoID : 0Format : MPEG-4 VisualFormat profile : Advanced [email protected] settings, BVOP : 2Format settings, QPel : NoFormat settings, GMC : No warppointsFormat settings, Matrix : CustomCodec ID : XVIDCodec ID/Hint : XviDDuration : 5mn 39sBit rate : 1 902 KbpsWidth : 704 pixelsHeight : 528 pixelsDisplay aspect ratio : 4:3Frame rate : 25.000 fpsColor space : YUVChroma subsampling : 4:2:0Bit depth : 8 bitsScan type : ProgressiveCompression mode : LossyBits/(Pixel*Frame) : 0.205Stream size : 77.1 MiB (93%)Writing library : XviD 65
AudioID : 1Format : MPEG AudioFormat version : Version 1Format profile : Layer 3Mode : Joint stereoMode extension : MS StereoCodec ID : 55Codec ID/Hint : MP3Duration : 5mn 39sBit rate mode : ConstantBit rate : 128 KbpsChannel(s) : 2 channelsSampling rate : 44.1 KHzCompression mode : LossyStream size : 5.19 MiB (6%)Alignment : Split accross interleavesInterleave, duration : 40 ms (1.00 video frame)Interleave, preload duration : 500 msWriting library : LAME3.99rEncoding settings : -m j -V 4 -q 3 -lowpass 17 -b 128

Скриншоты

Other forum [Profile] [PM]
Display posts from previous:    
Reply to topic

The time now is: Today 01:06

All times are GMT + 3 Hours



You cannot post new topics in this forum
You cannot reply to topics in this forum
You cannot edit your posts in this forum
You cannot delete your posts in this forum
You cannot vote in polls in this forum
You cannot attach files in this forum
You cannot download files in this forum