Today is a free download without charge Download

(Score/Soundtrack) Time of EVE: The Movie Original Soundtrack - 2014, FLAC (tracks+.cue), lossless

Reply to topic
 
Author
Message

Omen ®

Longevity: 9 years 1 month

Posts: 181086

Торрент-статистика

Post 25-Nov-2014 20:00

[Quote]

Time of EVE: The Movie Original Soundtrack-Жанр: Score, Soundtrack
Происхождение исполнителя: Япония-Год издания данного носителя: 2014
Страна-производитель носителя: США-Тип релиза: tracks+.cue
Аудио кодек: FLAC
Битрейт аудио: lossless
Продолжительность: 38:16.747
Полиграфия: отсутствует
Тип рипа: tracks+.cue
Уровень сжатия аудио кодеком: FLAC 8-Источник: -Доп. информация:
Официальный аудио компакт-диск идущий в дополнение к Deluxe Edition - Time of EVE: The Movie - Pied Piper, Inc.-

Треклист

01. EVE`s Net (1:09)
02. CODE:LIFE (1:33)
03. Population 20 Million (1:06)
04. Time of Eve (1:21)
05. Cafe BGM (1:36)
06. Exclusive Control (0:32)
07. AKIKO (0:35)
08. People`s Feelings, Machine`s Feelings (0:52)
09. EVE`s Companions (0:32)
10. SAMMY`s Impulse (0:48)
11. Song for the First Law (0:50)
12. Time of Wonder (1:25)
13. Fine Line Between Horror and Eros (0:13)
14. Booting Up (0:33)
15. Her Interior (0:33)
16. RINA (1:06)
17. KOJI (1:34)
18. Cafe BGM 2 (1:40)
19. Their Distance (0:27)
20. Does the Houseroid Dream of Him? (1:13)
21. LUH Model (0:40)
22. Clunker Robot (0:34)
23. KATORAN (0:41)
24. Premonition (0:27)
25. RIKUO`s Thoughts (0:37)
26. Rainy Trip Home (1:20)
27. Time of Tenderness (Piano Ver.) (0:47)
28. Time of Tenderness (Short Ver.) (3:18)
29. THX (0:40)
30. Ethics Committee (2:31)
31. Android (0:17)
32. Beyond EVE (2:21)
33. I have a dream (Movie Ver.) (4:28)

Отчёт об извлечении

Exact Audio Copy V1.0 beta 3 from 29. August 2011
EAC extraction logfile from 20. November 2014, 2:20
TIME_OF_EVE / TIME_OF_EVE
Used drive : PIONEER BD-RW BDR-207M Adapter: 0 ID: 0
Read mode : SecureUtilize accurate stream : YesDefeat audio cache : YesMake use of C2 pointers : No
Read offset correction : 667Overread into Lead-In and Lead-Out : NoFill up missing offset samples with silence : YesDelete leading and trailing silent blocks : NoNull samples used in CRC calculations : YesUsed interface : Native Win32 interface for Win NT & 2000Gap handling : Appended to previous track
Used output format : User Defined EncoderSelected bitrate : 128 kBit/sQuality : HighAdd ID3 tag : NoCommand line compressor : C:\Program Files (x86)\Exact Audio Copy\Flac\flac.exeAdditional command line options : -V -8 -T "Genre=%genre%" -T "Artist=%artist%" -T "Title=%title%" -T "Album=%albumtitle%" -T "Date=%year%" -T "Tracknumber=%tracknr%" -T "Comment=%comment%" %source%
TOC of the extracted CD
Track | Start | Length | Start sector | End sector --------------------------------------------------------- 1 | 0:00.00 | 1:08.61 | 0 | 5160 2 | 1:08.61 | 1:32.50 | 5161 | 12110 3 | 2:41.36 | 1:05.41 | 12111 | 17026 4 | 3:47.02 | 1:20.46 | 17027 | 23072 5 | 5:07.48 | 1:35.57 | 23073 | 30254 6 | 6:43.30 | 0:32.21 | 30255 | 32675 7 | 7:15.51 | 0:34.38 | 32676 | 35263 8 | 7:50.14 | 0:51.53 | 35264 | 39141 9 | 8:41.67 | 0:32.03 | 39142 | 41544 10 | 9:13.70 | 0:47.45 | 41545 | 45114 11 | 10:01.40 | 0:49.58 | 45115 | 48847 12 | 10:51.23 | 1:25.14 | 48848 | 55236 13 | 12:16.37 | 0:12.72 | 55237 | 56208 14 | 12:29.34 | 0:32.55 | 56209 | 58663 15 | 13:02.14 | 0:32.49 | 58664 | 61112 16 | 13:34.63 | 1:05.73 | 61113 | 66060 17 | 14:40.61 | 1:33.44 | 66061 | 73079 18 | 16:14.30 | 1:40.29 | 73080 | 80608 19 | 17:54.59 | 0:27.06 | 80609 | 82639 20 | 18:21.65 | 1:12.50 | 82640 | 88089 21 | 19:34.40 | 0:40.17 | 88090 | 91106 22 | 20:14.57 | 0:34.29 | 91107 | 93685 23 | 20:49.11 | 0:41.24 | 93686 | 96784 24 | 21:30.35 | 0:26.49 | 96785 | 98783 25 | 21:57.09 | 0:37.32 | 98784 | 101590 26 | 22:34.41 | 1:19.39 | 101591 | 107554 27 | 23:54.05 | 0:47.30 | 107555 | 111109 28 | 24:41.35 | 3:17.44 | 111110 | 125928 29 | 27:59.04 | 0:40.20 | 125929 | 128948 30 | 28:39.24 | 2:31.04 | 128949 | 140277 31 | 31:10.28 | 0:17.18 | 140278 | 141570 32 | 31:27.46 | 2:21.17 | 141571 | 152162 33 | 33:48.63 | 4:27.68 | 152163 | 172255
Track 1
Filename C:\Time_of_EVE_Movie_OST_Animeceh\01 EVE`s Net.wav
Pre-gap length 0:00:02.00
Peak level 84.0 % Extraction speed 3.1 X Track quality 100.0 % Test CRC 384FE760 Copy CRC 384FE760 Copy OK
Track 2
Filename C:\Time_of_EVE_Movie_OST_Animeceh\02 CODE-LIFE.wav
Peak level 98.7 % Extraction speed 3.5 X Track quality 100.0 % Test CRC 69367341 Copy CRC 69367341 Copy OK
Track 3
Filename C:\Time_of_EVE_Movie_OST_Animeceh\03 Population 20 Million.wav
Peak level 74.3 % Extraction speed 3.3 X Track quality 100.0 % Test CRC 17C4CAC1 Copy CRC 17C4CAC1 Copy OK
Track 4
Filename C:\Time_of_EVE_Movie_OST_Animeceh\04 Time of Eve.wav
Peak level 89.0 % Extraction speed 3.6 X Track quality 100.0 % Test CRC 6A34EE8B Copy CRC 6A34EE8B Copy OK
Track 5
Filename C:\Time_of_EVE_Movie_OST_Animeceh\05 Cafe BGM.wav
Peak level 99.8 % Extraction speed 3.9 X Track quality 100.0 % Test CRC FE5894BD Copy CRC FE5894BD Copy OK
Track 6
Filename C:\Time_of_EVE_Movie_OST_Animeceh\06 Exclusive Control.wav
Pre-gap length 0:00:01.20
Peak level 91.9 % Extraction speed 2.6 X Track quality 100.0 % Test CRC 7841E93F Copy CRC 7841E93F Copy OK
Track 7
Filename C:\Time_of_EVE_Movie_OST_Animeceh\07 AKIKO.wav
Pre-gap length 0:00:01.34
Peak level 99.6 % Extraction speed 1.7 X Track quality 99.6 % Test CRC FA121964 Copy CRC FA121964 Copy OK
Track 8
Filename C:\Time_of_EVE_Movie_OST_Animeceh\08 People`s Feelings, Machine`s Feelings.wav
Pre-gap length 0:00:01.13
Peak level 98.5 % Extraction speed 3.1 X Track quality 100.0 % Test CRC C77A3978 Copy CRC C77A3978 Copy OK
Track 9
Filename C:\Time_of_EVE_Movie_OST_Animeceh\09 EVE`s Companions.wav
Peak level 89.0 % Extraction speed 2.6 X Track quality 100.0 % Test CRC BB2C5C9A Copy CRC BB2C5C9A Copy OK
Track 10
Filename C:\Time_of_EVE_Movie_OST_Animeceh\10 SAMMY`s Impulse.wav
Pre-gap length 0:00:01.17
Peak level 68.7 % Extraction speed 3.2 X Track quality 100.0 % Test CRC CF26289A Copy CRC CF26289A Copy OK
Track 11
Filename C:\Time_of_EVE_Movie_OST_Animeceh\11 Song for the First Law.wav
Peak level 31.7 % Extraction speed 2.3 X Track quality 99.7 % Test CRC 3B99F525 Copy CRC 3B99F525 Copy OK
Track 12
Filename C:\Time_of_EVE_Movie_OST_Animeceh\12 Time of Wonder.wav
Peak level 83.1 % Extraction speed 4.2 X Track quality 100.0 % Test CRC 94952D04 Copy CRC 94952D04 Copy OK
Track 13
Filename C:\Time_of_EVE_Movie_OST_Animeceh\13 Fine Line Between Horror and Eros.wav
Peak level 88.5 % Extraction speed 0.9 X Track quality 99.1 % Test CRC 1DDB8F55 Copy CRC 1DDB8F55 Copy OK
Track 14
Filename C:\Time_of_EVE_Movie_OST_Animeceh\14 Booting Up.wav
Peak level 83.6 % Extraction speed 2.9 X Track quality 100.0 % Test CRC 392D902E Copy CRC 392D902E Copy OK
Track 15
Filename C:\Time_of_EVE_Movie_OST_Animeceh\15 Her Interior.wav
Pre-gap length 0:00:01.16
Peak level 99.8 % Extraction speed 2.9 X Track quality 100.0 % Test CRC DCC41E9D Copy CRC DCC41E9D Copy OK
Track 16
Filename C:\Time_of_EVE_Movie_OST_Animeceh\16 RINA.wav
Pre-gap length 0:00:01.13
Peak level 47.5 % Extraction speed 4.0 X Track quality 100.0 % Test CRC 8128216C Copy CRC 8128216C Copy OK
Track 17
Filename C:\Time_of_EVE_Movie_OST_Animeceh\17 KOJI.wav
Peak level 95.6 % Extraction speed 3.6 X Track quality 99.8 % Test CRC 67641BC8 Copy CRC 67641BC8 Copy OK
Track 18
Filename C:\Time_of_EVE_Movie_OST_Animeceh\18 Cafe BGM 2.wav
Pre-gap length 0:00:01.08
Peak level 70.7 % Extraction speed 4.8 X Track quality 100.0 % Test CRC BC4A6397 Copy CRC BC4A6397 Copy OK
Track 19
Filename C:\Time_of_EVE_Movie_OST_Animeceh\19 Their Distance.wav
Pre-gap length 0:00:01.00
Peak level 69.7 % Extraction speed 2.7 X Track quality 100.0 % Test CRC 91DD3DB3 Copy CRC 91DD3DB3 Copy OK
Track 20
Filename C:\Time_of_EVE_Movie_OST_Animeceh\20 Does the Houseroid Dream of Him.wav
Peak level 52.0 % Extraction speed 4.4 X Track quality 100.0 % Test CRC 3611FC0B Copy CRC 3611FC0B Copy OK
Track 21
Filename C:\Time_of_EVE_Movie_OST_Animeceh\21 LUH Model.wav
Pre-gap length 0:00:01.36
Peak level 98.9 % Extraction speed 3.4 X Track quality 100.0 % Test CRC 5B55FD6A Copy CRC 5B55FD6A Copy OK
Track 22
Filename C:\Time_of_EVE_Movie_OST_Animeceh\22 Clunker Robot.wav
Pre-gap length 0:00:01.25
Peak level 71.2 % Extraction speed 3.2 X Track quality 100.0 % Test CRC 26DD596D Copy CRC 26DD596D Copy OK
Track 23
Filename C:\Time_of_EVE_Movie_OST_Animeceh\23 KATORAN.wav
Peak level 76.5 % Extraction speed 3.5 X Track quality 100.0 % Test CRC 49ECBBA1 Copy CRC 49ECBBA1 Copy OK
Track 24
Filename C:\Time_of_EVE_Movie_OST_Animeceh\24 Premonition.wav
Pre-gap length 0:00:01.46
Peak level 65.0 % Extraction speed 2.9 X Track quality 100.0 % Test CRC B8DE0654 Copy CRC B8DE0654 Copy OK
Track 25
Filename C:\Time_of_EVE_Movie_OST_Animeceh\25 RIKUO`s Thoughts.wav
Pre-gap length 0:00:01.22
Peak level 63.8 % Extraction speed 3.4 X Track quality 100.0 % Test CRC 4A1CE14B Copy CRC 4A1CE14B Copy OK
Track 26
Filename C:\Time_of_EVE_Movie_OST_Animeceh\26 Rainy Trip Home.wav
Pre-gap length 0:00:01.37
Peak level 92.7 % Extraction speed 4.8 X Track quality 100.0 % Test CRC 9498779E Copy CRC 9498779E Copy OK
Track 27
Filename C:\Time_of_EVE_Movie_OST_Animeceh\27 Time of Tenderness (Piano Ver.).wav
Peak level 98.9 % Extraction speed 3.8 X Track quality 100.0 % Test CRC 86F58EC6 Copy CRC 86F58EC6 Copy OK
Track 28
Filename C:\Time_of_EVE_Movie_OST_Animeceh\28 Time of Tenderness (Short Ver.).wav
Pre-gap length 0:00:01.31
Peak level 99.8 % Extraction speed 6.1 X Track quality 100.0 % Test CRC 01C4EB7D Copy CRC 01C4EB7D Copy OK
Track 29
Filename C:\Time_of_EVE_Movie_OST_Animeceh\29 THX.wav
Peak level 49.8 % Extraction speed 3.8 X Track quality 100.0 % Test CRC 0175CF37 Copy CRC 0175CF37 Copy OK
Track 30
Filename C:\Time_of_EVE_Movie_OST_Animeceh\30 Ethics Committee.wav
Pre-gap length 0:00:01.34
Peak level 91.2 % Extraction speed 4.9 X Track quality 99.9 % Test CRC 19583382 Copy CRC 19583382 Copy OK
Track 31
Filename C:\Time_of_EVE_Movie_OST_Animeceh\31 Android.wav
Peak level 97.1 % Extraction speed 1.4 X Track quality 99.3 % Test CRC 1BDE5C62 Copy CRC 1BDE5C62 Copy OK
Track 32
Filename C:\Time_of_EVE_Movie_OST_Animeceh\32 Beyond EVE.wav
Pre-gap length 0:00:01.26
Peak level 100.0 % Extraction speed 6.0 X Track quality 100.0 % Test CRC DBBAA37D Copy CRC DBBAA37D Copy OK
Track 33
Filename C:\Time_of_EVE_Movie_OST_Animeceh\33 I have a dream (Movie Ver.).wav
Pre-gap length 0:00:01.27
Peak level 100.0 % Extraction speed 6.2 X Track quality 99.9 % Test CRC 2ADCE9D9 Copy CRC 2ADCE9D9 Copy OK
No errors occurred
End of status report
---- CUETools DB Plugin V2.1.3
[CTDB TOCID: jUufe.KjnsVzp1P2rVP_yP48jYs-] found, Submit result: already submitted[3b824d90] (7/7) Accurately ripped
==== Log checksum 37817D3E3682117D6D21B1D158C2550413049927C78709176A90EF81D1102778 ====
Other forum [Profile] [PM]
Display posts from previous:    
Reply to topic

The time now is: Today 14:54

All times are GMT + 3 Hours



You cannot post new topics in this forum
You cannot reply to topics in this forum
You cannot edit your posts in this forum
You cannot delete your posts in this forum
You cannot vote in polls in this forum
You cannot attach files in this forum
You cannot download files in this forum