Today is a free download without charge Download

Рождество с волшебными родителями / A Fairly Odd Christmas (Сэвидж Стив Холланд / Savage Steve Holland) [2012, Семейный, Приключения, Комедия, SATRip]

Reply to topic
 
Author
Message

sashau ®

Gender:

Longevity: 9 years 4 months

Posts: 3497

Торрент-статистика

Post 25-Nov-2014 11:15

[Quote]

Рождество с волшебными родителями / A Fairly Odd Christmas - Год выпуска: 2012
Жанр: Семейный, Приключения, Комедия
Описание фильма:
Тимми Тёрнеру придётся отправиться в увлекательное путешествие и спасти Рождество, но это будет не так просто: он должен будет пройти много опасных испытаний и быть сильным. Он не обойдётся без своей подруги Тутти, и конечно же, волшебных родителей!
Режиссер: Сэвидж Стив Холланд / Savage Steve Holland
Актеры: Дрейк Белл, Даниэлла Монэ, Тони Кокс, Даран Норрис, Терил Ротери, Трэвис Тернер, Девин Далтон, Донаван Стинсон, Майкл К. Адамс, Дэлайла Бела
Продолжительность: 01:05:04
Качество видео: SATRip
Перевод: Дублированный
Автор перевода: SDI Media
Релиз группа: Deadmauvlad

Дата мировой премьеры: 29 ноября 2012
Видеокодек: Xvid
Битрейт видео: ~2184 kbps avg
Размер кадра: 720x400
Аудиокодек: AC3 2.0
Битрейт аудио: 192.00 kbps avg
Сэмпл: Ссылка

MediaInfo

Код:
Общее
Полное имя : D:\Рипы выкладка [Deadmauvlad]\Рипы готовые\A.Fairly.Odd.Christmas.2012.Nickelodeon.D.SATRip.Deadmauvlad.avi
Формат : AVI
Формат/Информация : Audio Video Interleave
Размер файла : 1,08 Гбайт
Длительность : 1 ч. 5 м.
Общий поток : 2386 Кбит/сек
Название фильма : A.Fairly.Odd.Christmas.2012.Nickelodeon.D.SATRip.Deadmauvlad
Режиссёр : Deadmauvlad
Жанр : Семейный,Комедия,Фэнтези
Программа кодирования : VirtualDubMod 1.5.10.3 | [url=http://www.virtualdub-fr.org]www.virtualdub-fr.org[/url] || (build 2550/release)
Формат оригинала/Имя : Фильм
Правообладатель : Goldenshara
Видео
Идентификатор : 0
Формат : MPEG-4 Visual
Профиль формата : Advanced [email protected]
Параметр BVOP формата : 1
Параметр QPel формата : Нет
Параметр GMC формата : Без точки перехода
Параметр матрицы формата : Выборочная
Идентификатор кодека : XVID
Идентификатор кодека/Подсказка : XviD
Длительность : 1 ч. 5 м.
Битрейт : 2185 Кбит/сек
Ширина : 720 пикселей
Высота : 400 пикселей
Соотношение сторон : 16:9
Частота кадров : 25,000 кадров/сек
Цветовое пространство : YUV
Субдискретизация насыщенности : 4:2:0
Битовая глубина : 8 бит
Тип развёртки : Прогрессивная
Метод сжатия : С потерями
Бит/(Пиксели*Кадры) : 0.303
Размер потока : 1017 Мбайт (92%)
Библиотека кодирования : XviD 73
Аудио
Идентификатор : 1
Формат : AC-3
Формат/Информация : Audio Coding 3
Расширение режима : CM (complete main)
Параметр Endianness формата : Big
Идентификатор кодека : 2000
Длительность : 1 ч. 5 м.
Вид битрейта : Постоянный
Битрейт : 192 Кбит/сек
Каналы : 2 канала
Расположение каналов : Front: L R
Частота : 48,0 КГц
Битовая глубина : 16 бит
Метод сжатия : С потерями
Размер потока : 89,4 Мбайт (8%)
Выравнивание : Разделение по промежуткам
Длительность промежутка : 40 мс. (1,00 видеокадр)
Время предзагрузки промежутка : 500 мс.
Скриншоты        
       
 
Other forum [Profile] [PM]
Similar theme
Forum Topic Author Torrent Replies Last Post
./templates/default/images/folder_dl.gif Развлекательные телепередачи и шоу, приколы и юмор Рождественская песенка года [часть 01-03] (2013) HDTV 1080i Omen
0 | 1

0 | 1087

0

2013-01-28 04:32
Omen Latest
./templates/default/images/folder_dl.gif Фантастика, фэнтези, ужасы, мистика Роберт Говард / Robert Ervin Howard - Собрание сочинений в 15-ти томах («Fantasy. Fantasy (возрожденная)») [1997-1999, FB2/RTF, RUS] Omen
0 | 1

0 | 1873

2

2015-06-17 09:58
Omen Latest
Display posts from previous:    
Reply to topic

The time now is: Today 21:01

All times are GMT + 3 Hours



You cannot post new topics in this forum
You cannot reply to topics in this forum
You cannot edit your posts in this forum
You cannot delete your posts in this forum
You cannot vote in polls in this forum
You cannot attach files in this forum
You cannot download files in this forum