Today is a free download without charge Download

Золушка.ру / Золушка.ru (Александр Замятин) [2007, Комедия, мелодрама, музыкальный фильм, DVDRip]

Reply to topic
 
Author
Message

Omen ®

Longevity: 8 years

Posts: 181087

Торрент-статистика

Post 05-Feb-2012 20:32

[Quote]

Золушка.ru Название: Золушка.ru
Год выхода: 2008
Жанр: Комедия, Мелодрама-Выпущено: Россия
Продолжительность: 01:43:07
Перевод: Оригинал
Режиссер: Александр Замятин-В ролях:
Михаил Богдасаров, Александр Гордеев, Николай Гусев, Оксана, Ники Илиев, Евгения Лоза, Иван Николаев, Ирина Сидорова, Павел Сметанкин, Владимир Стержаков, Олег Шкловский, Ия Нинидзе, Юнона Дорошева, Анна Данькова-Описание фильма:
Начинающий певец из провинциального городка Андрей мечтает о славе, большой сцене, миллионах долларов… И однажды известный продюсер предлагает ему заключить выгодный контракт. Андрей без колебаний соглашается, оставляет любимую девушку Наташу и едет в Москву. Спустя некоторое время девушка узнает из светской хроники, что Андрей помолвлен с «нефтяной принцессой» Еленой.
Расстроенной Наташе советуют обратиться в брачное агентство «Золушка», устраивающее браки с миллионерами. Она соглашается и приезжает в Москву для встречи с потенциальными женихами. Но агентство оказывается подставным, Наташу жестоко обманывают и она остается в столице без жениха и без денег. Вернуться в родной город девушка не может, поэтому устраивается на работу официанткой.
Но судьба преподносит Наташе подарок. И вскоре ее жизнь меняется — она встречает свою новую любовь…


Видеокодек: DivX 6
Битрейт видео: 1700kbps
Размер кадра: 720x416
Качество видео: DVDRip
Аудиокодек: AC3 2.0
Битрейт аудио: 256kbps
Перевод: Оригинальный
-

MediaInfo

Код:
Общее
Полное имя                       : D:\Downloads\Zolushka.Ru.2008.DivX.DVDRip.byAlex10011967-BigFANgroup.avi
Формат                           : AVI
Формат/Информация                : Audio Video Interleave
Размер файла                     : 1,37 Гбайт
Продолжительность                : 1 ч. 43 м.
Общий поток                      : 1897 Кбит/сек
Программа кодирования            : VirtualDubMod 1.5.4.1 (build 2178/release)
Библиотека кодирования           : VirtualDubMod build 2178/release
Видео
Идентификатор                    : 0
Формат                           : MPEG-4 Visual
Параметр BVOP формата            : 1
Параметр QPel формата            : Нет
Параметр GMC формата             : Без точки перехода
Параметр матрицы формата         : Default (H.263)
Режим смешивания                 : Сжатый битовый поток
Идентификатор кодека             : DX50
Идентификатор кодека/Подсказка   : DivX 5
Продолжительность                : 1 ч. 43 м.
Битрейт                          : 1698 Кбит/сек
Ширина                           : 720 пикселей
Высота                           : 416 пикселей
Соотношение сторон               : 16:9
Частота кадров                   : 25,000 кадров/сек
Цветовое пространство            : YUV
Субдискретизация насыщенности    : 4:2:0
Битовая глубина                  : 8 бит
Тип развёртки                    : Прогрессивная
Метод сжатия                     : С потерями
Бит/(Пиксели*Кадры)              : 0.227
Размер потока                    : 1,22 Гбайт (90%)
Библиотека кодирования           : DivX 6.8.0 (UTC 2007-12-04)
Аудио
Идентификатор                    : 1
Формат                           : AC-3
Формат/Информация                : Audio Coding 3
Расширение режима                : CM (complete main)
Идентификатор кодека             : 2000
Продолжительность                : 1 ч. 43 м.
Вид битрейта                     : Постоянный
Битрейт                          : 192 Кбит/сек
Каналы                           : 2 канала
Расположение каналов             : Front: L R
Частота                          : 48,0 КГц
Битовая глубина                  : 16 бит
Метод сжатия                     : С потерями
Размер потока                    : 142 Мбайт (10%)
Выравнивание                     : Разделение по промежуткам
Продолжительность промежутка     : 96  мс. (2,40 видеокадра)
Время предзагрузки промежутка    : 96  мс.
Язык                             : Russian
-

Скриншоты:

                                                 
Other forum [Profile] [PM]
Display posts from previous:    
Reply to topic

The time now is: Today 11:20

All times are GMT + 3 Hours



You cannot post new topics in this forum
You cannot reply to topics in this forum
You cannot edit your posts in this forum
You cannot delete your posts in this forum
You cannot vote in polls in this forum
You cannot attach files in this forum
You cannot download files in this forum