Today is a free download without charge Download

Букашки. Приключение в Долине муравьев / Minuscule - La vallée des fourmis perdues (Хелен Жиро / Hélène Giraud, Томас Сабо / Thomas Szabo) [2013, мультфильм, приключения, семейный, BDRip 1080p]

Reply to topic
 
Author
Message

Omen ®

Longevity: 8 years

Posts: 181087

Торрент-статистика

Post 24-Nov-2014 02:00

[Quote]

Букашки. Приключение в Долине муравьев / Minuscule - La vallée des fourmis perdues
Страна: Франция, Бельгия
Жанр: мультфильм, приключения, семейный
Продолжительность: 01:28:27
Год выпуска: 2013
Перевод: Не требуется
Русские субтитры: нет
Режиссёр: Хелен Жиро / Hélène Giraud, Томас Сабо / Thomas Szabo
Описание: Активные и любознательные черные муравьишки обнаруживают брошенную после пикника коробку с сахаром. Дружный отряд муравьишек вместе с Божьей коровкой решают переправить лакомство в муравейник. Но сладкая коробка уже успела нарушить спокойствие во всей долине, и свои планы на лакомство появились у других обитателей леса, в частности — у злобных красных муравьев-захватчиков. А, стало быть, на пути к заветной цели черным муравьишкам предстоит преодолеть массу опасностей и приключений.
Релиз: by almetyevec
Encode от VietHD!
Сэмпл: http://multi-up.com/1015162
Качество: BDRip 1080p
Формат: MKV
Видео: 1920x804 at 23.976 fps, [email protected], ~10600 kbps avg
Аудио: French: 48 kHz, DTS, 3/2 (L,C,R,l,r) + LFE ch, ~1536.00 kbps avg
Субтитры: отсутствуют

Информация о релизе

Сохранены оригинальные чаптеры c Blu-Ray.
Перевод не требуется!
.Notes
* Do not crop black borders on the left and the right, due to variable borders.
* FillMargins for filling 1px black borders.
* Dirty lines were fixed with BalanceBorders.
* Zones was used to prevent banding.

Подробные технические данные

GeneralUnique ID : 206991608913979038717494635097926237355 (0x9BB9223FB251ECBF80AE4D6F33297CAB)Complete name : D:\Видео\Movies\Minuscule.La.vallée.des.fourmis.perdues.2013.1080p.BluRay.Fre.HDCLUB.mkvFormat : MatroskaFormat version : Version 4 / Version 2File size : 7.60 GiBDuration : 1h 28mnOverall bit rate : 12.3 MbpsEncoded date : UTC 2014-11-23 10:24:02Writing application : mkvmerge v6.9.1 ('Blue Panther') 64bit built on Apr 18 2014 18:23:38Writing library : libebml v1.3.0 + libmatroska v1.4.1
VideoID : 1Format : AVCFormat/Info : Advanced Video CodecFormat profile : [email protected] settings, CABAC : YesFormat settings, ReFrames : 5 framesCodec ID : V_MPEG4/ISO/AVCDuration : 1h 28mnBit rate : 10.5 MbpsWidth : 1 920 pixelsHeight : 804 pixelsDisplay aspect ratio : 2.40:1Frame rate mode : ConstantFrame rate : 23.976 fpsColor space : YUVChroma subsampling : 4:2:0Bit depth : 8 bitsScan type : ProgressiveBits/(Pixel*Frame) : 0.285Stream size : 6.51 GiB (86%)Writing library : x264 core 142 r2479kMod dd79a61Encoding settings : cabac=1 / ref=5 / deblock=1:-3:-3 / analyse=0x3:0x133 / me=umh / subme=10 / psy=1 / fade_compensate=0.00 / psy_rd=1.00:0.00 / mixed_ref=1 / me_range=24 / chroma_me=1 / trellis=2 / 8x8dct=1 / cqm=0 / deadzone=21,11 / fast_pskip=0 / chroma_qp_offset=-2 / threads=6 / lookahead_threads=1 / sliced_threads=0 / nr=0 / decimate=0 / interlaced=0 / bluray_compat=0 / constrained_intra=0 / fgo=0 / bframes=11 / b_pyramid=2 / b_adapt=2 / b_bias=0 / direct=3 / weightb=1 / open_gop=0 / weightp=2 / keyint=250 / keyint_min=23 / scenecut=40 / intra_refresh=0 / rc=crf / mbtree=0 / crf=14.5000 / qcomp=0.60 / qpmin=0 / qpmax=69 / qpstep=4 / ip_ratio=1.30 / pb_ratio=1.20 / aq=2:0.60 / zones=767,1400,crf=14/10427,10520,crf=14/12551,12672,crf=14/12770,17066,crf=14/17562,18062,crf=14/20752,21201,crf=14/21757,21850,crf=14/22807,23163,crf=14/23343,23511,crf=14/23774,23878,crf=14/31340,31453,crf=14/31989,32081,crf=14/32313,32496,crf=14/32742,32883,crf=14/33654,33836,crf=14/36163,36335,crf=14/36596,36690,crf=14/36798,36968,crf=14/37623,37770,crf=14/38900,38970,crf=14/39586,39692,crf=14/40181,41993,crf=14/42582,42674,crf=14/4358,44717,crf=14/50759,52655,crf=14/57381,60624,crf=14/62616,63775,crf=14/64982,66209,crf=14/67719,67900,crf=14/68152,69555,crf=14/70038,70211,crf=14/74373,76930,crf=14/88240,95180,crf=14/96817,99640,crf=14/105792,111999,crf=14/113865,113890,crf=14/118847,119169,crf=14Default : NoForced : No
AudioID : 2Format : DTSFormat/Info : Digital Theater SystemsMode : 16Format settings, Endianness : BigCodec ID : A_DTSDuration : 1h 28mnBit rate mode : ConstantBit rate : 1 509 KbpsChannel count : 6 channelsChannel positions : Front: L C R, Side: L R, LFESampling rate : 48.0 KHzBit depth : 24 bitsCompression mode : LossyStream size : 955 MiB (12%)Language : FrenchDefault : YesForced : No
Menu00:00:00.000 : en:Chapter 100:02:44.081 : en:Chapter 200:19:44.016 : en:Chapter 300:34:45.041 : en:Chapter 400:42:08.568 : en:Chapter 500:58:45.230 : en:Chapter 601:13:24.692 : en:Chapter 701:19:13.499 : en:Chapter 801:22:50.382 : en:Chapter 9

Скриншоты


Other forum [Profile] [PM]

Dracula

Longevity: 7 years 1 month

Posts: 11396

Торрент-статистика

Post 24-Nov-2014 19:24 (after 17 hours)

Топик был перенесен из форума Мультфильмы (HD) в форум Мультфильмы


Геннадич
 
Display posts from previous:    
Reply to topic

The time now is: Today 01:52

All times are GMT + 3 Hours



You cannot post new topics in this forum
You cannot reply to topics in this forum
You cannot edit your posts in this forum
You cannot delete your posts in this forum
You cannot vote in polls in this forum
You cannot attach files in this forum
You cannot download files in this forum