Today is a free download without charge Download

Сделка с дьяволом / The Covenan (2006) [1080p] Blu-Ray (1080p)

Reply to topic
 
Author
Message

Varius ®

Gender:

Longevity: 11 years

Posts: 2428

Location: Hell

Торрент-статистика

Post 05-Feb-2012 15:39

[Quote]

Сделка с дьяволом / The Covenan (2006) Blu-Ray (1080p)
«Сила магии. Магия молодости. Искушение властью.»
- Русское название: Сделка с дьяволом
Оригинальное название: The Covenan
Год выпуска: 2006
Производство: США
Жанр: фэнтези, боевик, триллер
Перевод: Профессиональный (полное дублирование)
Субтитры: Русские, английские
Режиссер: Ренни Харлин
Актеры: Стивен Стрэйт, Себастиан Стэн, Тоби Хемигуэй, Чейс Кроуфорд, Тэйлор Китш, Мэтт Остин, Ларри Дэй, Джессика Лукас, Лора Рэмси
Описание фильма:
В 1692 пять семейств, обладающих тайной силой, заключили договор молчания. На одну семью, жаждущую большей власти, был наложен запрет – их линия исчезла без следа. До сегодняшнего дня… Основанный на культовой графической новелле, фильм повествует мистическую историю четырех семейств, возглавляемых патриархами, обладающими сверхъестественными возможностями. Эта мистическая сила передается от отца к сыну на протяжении многих поколений. Новое поколение магов (в лице четырех сыновей патриархов) проводит лето, упражняясь в своих сверхчеловеческих возможностях и готовясь получить посвящение от отцов. В результате этих опасных занятий молодые люди странным образом высвобождают в мир мощную темную силу. Спустя четыре года им самим придется разбираться с ее нейтрализацией…-
Дата мировой премьеры: 8 сентября 2006
Дата российской премьеры: 7 сентября 2006, «Пирамида»-Продолжительность: 01:37:07
Качество видео:
MPEG-2 24798 kbps 1080p / 23,976 fps / 16:9
Аудио:
1. English Dolby Digital 5.1 48 kHz 640 kbps
2. English LPCM 5.1 48 kHz 4608 kbps 16-bit
3. Spanish Dolby Digital 5.1
4. Spanish LPCM 5.1
5. Czech Dolby Digital 5.1
6. Russian Dolby Digital 5.1 48 kHz 448 kbps - дублированный
7. Polish Dolby Digital 5.1
8. English Dolby Digital 2.0 48 kHz 192 kbps - комментарий
9. English Dolby Digital 5.1 48 kHz 448 kbps - descriptive service

Знаете ли вы, что...

* Все пауки, которых насылал Чейз были сделаны с помощью компьютерной графики.
* Съемки внешнего вида Академии Спенсер происходили в Университете Бишопа, в Шербруке, Квебек, отсняты в конце 2005 года.
* Ренни Харлин, известен тем, что демонстрирует в своих фильмах предметы финской культуры. В «Сделке» он вешает на стену Сары известную финскую картину, нарисованную Хьюго Симбергом. Она назвается «Раненый ангел» - на ней изображен ангел и поддерживающие его два мальчика.
* Согласно комментариям на DVD, съемки пляжной вечеринки происходили в декабре. Первоначальное место съемки незадолго до их начала было затоплено и сцены пришлось переснимать на новой локации в последнюю минуту.
* Во время лекции по Стивену Кингу, Рид произносит фразу: ««Ловец снов» - это ништяк!». Книга рассказывает о четырех парнях, обладающих сверхъестественной силой, довольно близко к сюжету фильма.

MediaInfo

Disc Title: Covenant, The (2006)
Disc Size: 33 085 951 248 bytes
Protection: AACS
BD-Java: No
BDInfo: 0.5.6
Notes:
BDINFO HOME:
Cinema Squid
http://www.cinemasquid.com/blu-ray/tools/bdinfo
INCLUDES FORUMS REPORT FOR:
AVS Forum Blu-ray Audio and Video Specifications Thread
http://www.avsforum.com/avs-vb/showthread.php?t=1155731
********************
PLAYLIST: 00069.MPLS
********************
<--- BEGIN FORUMS PASTE --->
Код:
Total   Video
Title                                                           Codec   Length  Movie Size      Disc Size       Bitrate Bitrate Main Audio Track                          Secondary Audio Track
-----                                                           ------  ------- --------------  --------------  ------- ------- ------------------                        ---------------------
00069.MPLS                                                      MPEG-2  1:37:07 29 247 744 000  33 085 951 248  40,15   24,80   LPCM 5.1 4608Kbps (48kHz/16-bit)          DD AC3 5.1 448Kbps
Код:
DISC INFO:
Disc Title:     Covenant, The (2006)
Disc Size:      33 085 951 248 bytes
Protection:     AACS
BD-Java:        No
BDInfo:         0.5.6
PLAYLIST REPORT:
Name:                   00069.MPLS
Length:                 1:37:07 (h:m:s)
Size:                   29 247 744 000 bytes
Total Bitrate:          40,15 Mbps
VIDEO:
Codec                   Bitrate             Description
-----                   -------             -----------
MPEG-2 Video            24798 kbps          1080p / 23,976 fps / 16:9
AUDIO:
Codec                           Language        Bitrate         Description
-----                           --------        -------         -----------
LPCM Audio                      English         4608 kbps       5.1 / 48 kHz / 4608 kbps / 16-bit
LPCM Audio                      Spanish         4608 kbps       5.1 / 48 kHz / 4608 kbps / 16-bit
Dolby Digital Audio             English         448 kbps        5.1 / 48 kHz / 448 kbps / DN -3dB
Dolby Digital Audio             English         640 kbps        5.1 / 48 kHz / 640 kbps
Dolby Digital Audio             Czech           448 kbps        5.1 / 48 kHz / 448 kbps / DN -5dB
Dolby Digital Audio             Polish          448 kbps        5.1 / 48 kHz / 448 kbps / DN -4dB
Dolby Digital Audio             Russian         448 kbps        5.1 / 48 kHz / 448 kbps / DN -4dB
Dolby Digital Audio             Spanish         448 kbps        5.1 / 48 kHz / 448 kbps
Dolby Digital Audio             English         192 kbps        2.0 / 48 kHz / 192 kbps / Dolby Surround
SUBTITLES:
Codec                           Language        Bitrate         Description
-----                           --------        -------         -----------
Presentation Graphics           English         35,242 kbps
Presentation Graphics           English         26,763 kbps
Presentation Graphics           English         117,610 kbps
Presentation Graphics           Czech           30,921 kbps
Presentation Graphics           Danish          30,361 kbps
Presentation Graphics           Dutch           32,799 kbps
Presentation Graphics           Dutch           104,974 kbps
Presentation Graphics           Finnish         35,024 kbps
Presentation Graphics           Greek           35,620 kbps
Presentation Graphics           Hebrew          27,232 kbps
Presentation Graphics           Hindi           31,641 kbps
Presentation Graphics           Hungarian       34,863 kbps
Presentation Graphics           Icelandic       37,594 kbps
Presentation Graphics           Norwegian       32,798 kbps
Presentation Graphics           Polish          32,763 kbps
Presentation Graphics           Portuguese      37,120 kbps
Presentation Graphics           Russian         29,730 kbps
Presentation Graphics           Spanish         36,600 kbps
Presentation Graphics           Spanish         110,007 kbps
Presentation Graphics           Swedish         30,809 kbps
Presentation Graphics           Turkish         30,143 kbps
FILES:
Name            Time In         Length          Size            Total Bitrate
----            -------         ------          ----            -------------
00071.M2TS      0:00:00.000     1:37:07.822     29 247 744 000  40 149
CHAPTERS:
Number          Time In         Length          Avg Video Rate  Max 1-Sec Rate  Max 1-Sec Time  Max 5-Sec Rate  Max 5-Sec Time  Max 10Sec Rate  Max 10Sec Time  Avg Frame Size  Max Frame Size  Max Frame Time
------          -------         ------          --------------  --------------  --------------  --------------  --------------  --------------  --------------  --------------  --------------  --------------
1               0:00:00.000     0:07:06.968     25 111 kbps     36 378 kbps     00:00:57.807    31 499 kbps     00:01:00.060    30 464 kbps     00:00:57.348    130 907 bytes   671 174 bytes   00:00:12.429
2               0:07:06.968     0:06:48.533     23 971 kbps     34 066 kbps     00:08:35.389    29 810 kbps     00:08:22.668    29 414 kbps     00:08:21.292    124 974 bytes   665 350 bytes   00:13:55.501
3               0:13:55.501     0:02:24.936     24 293 kbps     31 864 kbps     00:15:50.741    29 523 kbps     00:15:49.281    29 283 kbps     00:15:50.783    126 653 bytes   671 169 bytes   00:16:20.437
4               0:16:20.437     0:05:44.302     25 511 kbps     34 310 kbps     00:16:44.920    30 380 kbps     00:21:59.735    29 580 kbps     00:21:16.066    133 000 bytes   671 173 bytes   00:20:32.397
5               0:22:04.740     0:07:15.518     25 279 kbps     34 043 kbps     00:23:09.596    30 913 kbps     00:23:28.865    29 827 kbps     00:22:44.279    131 794 bytes   671 175 bytes   00:22:19.171
6               0:29:20.258     0:04:00.073     24 363 kbps     34 337 kbps     00:33:04.899    27 100 kbps     00:32:03.671    26 068 kbps     00:32:11.888    127 018 bytes   671 038 bytes   00:32:02.629
7               0:33:20.331     0:08:22.877     24 723 kbps     34 701 kbps     00:36:09.458    30 379 kbps     00:36:09.333    29 699 kbps     00:36:12.670    128 897 bytes   671 173 bytes   00:38:12.498
8               0:41:43.209     0:04:28.643     24 871 kbps     34 233 kbps     00:43:40.826    29 831 kbps     00:43:33.444    29 182 kbps     00:43:26.937    129 667 bytes   671 170 bytes   00:43:20.556
9               0:46:11.852     0:07:33.453     25 409 kbps     34 917 kbps     00:47:09.159    31 718 kbps     00:47:01.276    30 381 kbps     00:47:00.150    132 473 bytes   671 171 bytes   00:46:31.038
10              0:53:45.305     0:06:35.269     25 190 kbps     33 320 kbps     00:54:12.791    29 889 kbps     00:58:38.973    29 511 kbps     00:58:38.973    131 327 bytes   671 169 bytes   00:54:14.251
11              1:00:20.575     0:03:27.290     24 061 kbps     34 609 kbps     01:00:22.827    29 095 kbps     01:02:39.630    28 489 kbps     01:03:03.905    125 442 bytes   671 174 bytes   01:03:14.916
12              1:03:47.865     0:07:10.263     23 896 kbps     33 869 kbps     01:09:51.645    29 887 kbps     01:07:03.769    29 305 kbps     01:05:57.536    124 581 bytes   671 173 bytes   01:08:56.757
13              1:10:58.128     0:03:57.862     22 490 kbps     32 996 kbps     01:12:35.726    29 752 kbps     01:12:35.726    29 234 kbps     01:11:06.387    117 254 bytes   671 170 bytes   01:11:19.817
14              1:14:55.991     0:05:07.515     25 232 kbps     34 362 kbps     01:19:47.657    31 424 kbps     01:18:39.589    30 130 kbps     01:18:38.463    131 547 bytes   671 169 bytes   01:16:23.245
15              1:20:03.507     0:06:26.511     25 653 kbps     35 584 kbps     01:21:59.039    31 024 kbps     01:26:21.092    30 568 kbps     01:26:17.672    133 745 bytes   662 769 bytes   01:20:42.128
16              1:26:30.018     0:10:37.803     25 016 kbps     35 757 kbps     01:28:27.176    31 387 kbps     01:28:23.172    30 524 kbps     01:28:24.424    130 432 bytes   671 174 bytes   01:37:03.984
STREAM DIAGNOSTICS:
File            PID             Type            Codec           Language                Seconds                 Bitrate                 Bytes           Packets
----            ---             ----            -----           --------                --------------          --------------          -------------   -----
00071.M2TS      4113 (0x1011)   0x02            MPEG-2                                  5827,697                24 799                  18 064 896 685  98 260 114
00071.M2TS      4352 (0x1100)   0x81            AC3             eng (English)           5827,697                640                     466 227 200     2 731 800
00071.M2TS      4353 (0x1101)   0x80            LPCM            eng (English)           5827,697                4 615                   3 361 489 460   18 649 040
00071.M2TS      4354 (0x1102)   0x81            AC3             spa (Spanish)           5827,697                448                     326 359 040     1 821 200
00071.M2TS      4355 (0x1103)   0x80            LPCM            spa (Spanish)           5827,697                4 615                   3 361 489 460   18 649 040
00071.M2TS      4356 (0x1104)   0x81            AC3             ces (Czech)             5827,697                448                     326 359 040     1 821 200
00071.M2TS      4357 (0x1105)   0x81            AC3             rus (Russian)           5827,697                448                     326 359 040     1 821 200
00071.M2TS      4358 (0x1106)   0x81            AC3             pol (Polish)            5827,697                448                     326 359 040     1 821 200
00071.M2TS      4359 (0x1107)   0x81            AC3             eng (English)           5827,697                192                     139 868 160     910 600
00071.M2TS      4360 (0x1108)   0x81            AC3             eng (English)           5827,697                448                     326 359 040     1 821 200
00071.M2TS      4608 (0x1200)   0x90            PGS             eng (English)           5827,697                35                      25 672 956      144 462
00071.M2TS      4609 (0x1201)   0x90            PGS             eng (English)           5827,697                27                      19 496 151      112 266
00071.M2TS      4610 (0x1202)   0x90            PGS             spa (Spanish)           5827,697                37                      26 662 094      150 076
00071.M2TS      4611 (0x1203)   0x90            PGS             nld (Dutch)             5827,697                33                      23 892 988      134 226
00071.M2TS      4612 (0x1204)   0x90            PGS             rus (Russian)           5827,697                30                      21 657 537      123 474
00071.M2TS      4613 (0x1205)   0x90            PGS             ces (Czech)             5827,697                31                      22 525 248      127 484
00071.M2TS      4614 (0x1206)   0x90            PGS             dan (Danish)            5827,697                30                      22 117 584      124 246
00071.M2TS      4615 (0x1207)   0x90            PGS             fin (Finnish)           5827,697                35                      25 514 252      143 220
00071.M2TS      4616 (0x1208)   0x90            PGS             ell (Greek)             5827,697                36                      25 948 279      146 119
00071.M2TS      4617 (0x1209)   0x90            PGS             heb (Hebrew)            5827,697                27                      19 837 947      112 895
00071.M2TS      4618 (0x120A)   0x90            PGS             hin (Hindi)             5827,697                32                      23 049 440      130 344
00071.M2TS      4619 (0x120B)   0x90            PGS             hun (Hungarian)         5827,697                35                      25 396 741      143 077
00071.M2TS      4620 (0x120C)   0x90            PGS             isl (Icelandic)         5827,697                38                      27 386 753      153 970
00071.M2TS      4621 (0x120D)   0x90            PGS             nor (Norwegian)         5827,697                33                      23 892 769      134 913
00071.M2TS      4622 (0x120E)   0x90            PGS             pol (Polish)            5827,697                33                      23 866 955      134 737
00071.M2TS      4623 (0x120F)   0x90            PGS             por (Portuguese)        5827,697                37                      27 041 207      152 060
00071.M2TS      4624 (0x1210)   0x90            PGS             swe (Swedish)           5827,697                31                      22 443 326      126 100
00071.M2TS      4625 (0x1211)   0x90            PGS             tur (Turkish)           5827,697                30                      21 958 395      124 337
00071.M2TS      4626 (0x1212)   0x90            PGS             eng (English)           5827,697                118                     85 676 144      476 978
00071.M2TS      4627 (0x1213)   0x90            PGS             spa (Spanish)           5827,697                110                     80 137 791      446 794
00071.M2TS      4628 (0x1214)   0x90            PGS             nld (Dutch)             5827,697                105                     76 471 116      426 345
<---- END FORUMS PASTE ---->
QUICK SUMMARY:
Disc Title: Covenant, The (2006)
Disc Size: 33 085 951 248 bytes
Protection: AACS
BD-Java: No
Playlist: 00069.MPLS
Size: 29 247 744 000 bytes
Length: 1:37:07
Total Bitrate: 40,15 Mbps
Video: MPEG-2 Video / 24798 kbps / 1080p / 23,976 fps / 16:9
Audio: English / LPCM Audio / 5.1 / 48 kHz / 4608 kbps / 16-bit
Audio: Spanish / LPCM Audio / 5.1 / 48 kHz / 4608 kbps / 16-bit
Audio: English / Dolby Digital Audio / 5.1 / 48 kHz / 448 kbps / DN -3dB
Audio: English / Dolby Digital Audio / 5.1 / 48 kHz / 640 kbps
Audio: Czech / Dolby Digital Audio / 5.1 / 48 kHz / 448 kbps / DN -5dB
Audio: Polish / Dolby Digital Audio / 5.1 / 48 kHz / 448 kbps / DN -4dB
Audio: Russian / Dolby Digital Audio / 5.1 / 48 kHz / 448 kbps / DN -4dB
Audio: Spanish / Dolby Digital Audio / 5.1 / 48 kHz / 448 kbps
Audio: English / Dolby Digital Audio / 2.0 / 48 kHz / 192 kbps / Dolby Surround
Subtitle: English / 35,242 kbps
Subtitle: English / 26,763 kbps
Subtitle: English / 117,610 kbps
Subtitle: Czech / 30,921 kbps
Subtitle: Danish / 30,361 kbps
Subtitle: Dutch / 32,799 kbps
Subtitle: Dutch / 104,974 kbps
Subtitle: Finnish / 35,024 kbps
Subtitle: Greek / 35,620 kbps
Subtitle: Hebrew / 27,232 kbps
Subtitle: Hindi / 31,641 kbps
Subtitle: Hungarian / 34,863 kbps
Subtitle: Icelandic / 37,594 kbps
Subtitle: Norwegian / 32,798 kbps
Subtitle: Polish / 32,763 kbps
Subtitle: Portuguese / 37,120 kbps
Subtitle: Russian / 29,730 kbps
Subtitle: Spanish / 36,600 kbps
Subtitle: Spanish / 110,007 kbps
Subtitle: Swedish / 30,809 kbps
Subtitle: Turkish / 30,143 kbps
********************
PLAYLIST: 00071.MPLS
********************
<--- BEGIN FORUMS PASTE --->
Код:
Total   Video
Title                                                           Codec   Length  Movie Size      Disc Size       Bitrate Bitrate Main Audio Track                          Secondary Audio Track
-----                                                           ------  ------- --------------  --------------  ------- ------- ------------------                        ---------------------
00071.MPLS                                                      MPEG-2  0:41:59 1 514 889 216   33 085 951 248  4,81    4,28    DD AC3 2.0 192Kbps
Код:
DISC INFO:
Disc Title:     Covenant, The (2006)
Disc Size:      33 085 951 248 bytes
Protection:     AACS
BD-Java:        No
BDInfo:         0.5.6
PLAYLIST REPORT:
Name:                   00071.MPLS
Length:                 0:41:59 (h:m:s)
Size:                   1 514 889 216 bytes
Total Bitrate:          4,81 Mbps
VIDEO:
Codec                   Bitrate             Description
-----                   -------             -----------
MPEG-2 Video            4278 kbps           480i / 29,970 fps / 4:3
AUDIO:
Codec                           Language        Bitrate         Description
-----                           --------        -------         -----------
Dolby Digital Audio             English         192 kbps        2.0 / 48 kHz / 192 kbps / DN -3dB
SUBTITLES:
Codec                           Language        Bitrate         Description
-----                           --------        -------         -----------
Presentation Graphics           English         9,017 kbps
Presentation Graphics           Dutch           6,598 kbps
Presentation Graphics           Spanish         7,905 kbps
FILES:
Name            Time In         Length          Size            Total Bitrate
----            -------         ------          ----            -------------
00074.M2TS      0:00:00.000     0:18:45.824     914 196 480     6 496
00000.M2TS      0:18:45.824     0:14:59.832     387 932 160     3 449
00001.M2TS      0:33:45.656     0:08:13.526     212 760 576     3 449
CHAPTERS:
Number          Time In         Length          Avg Video Rate  Max 1-Sec Rate  Max 1-Sec Time  Max 5-Sec Rate  Max 5-Sec Time  Max 10Sec Rate  Max 10Sec Time  Avg Frame Size  Max Frame Size  Max Frame Time
------          -------         ------          --------------  --------------  --------------  --------------  --------------  --------------  --------------  --------------  --------------  --------------
1               0:00:00.000     0:18:45.824     5 860 kbps      14 607 kbps     00:15:40.839    12 312 kbps     00:15:37.336    11 832 kbps     00:15:34.833    24 441 bytes    148 403 bytes   00:00:43.576
2               0:18:45.824     0:14:59.832     3 000 kbps      7 700 kbps      00:23:06.084    6 199 kbps      00:20:31.863    5 988 kbps      00:20:26.959    12 513 bytes    85 914 bytes    00:19:54.159
3               0:33:45.656     0:08:13.526     3 000 kbps      7 588 kbps      00:39:03.407    5 763 kbps      00:39:08.212    5 654 kbps      00:39:02.640    12 513 bytes    121 353 bytes   00:38:03.180
STREAM DIAGNOSTICS:
File            PID             Type            Codec           Language                Seconds                 Bitrate                 Bytes           Packets
----            ---             ----            -----           --------                --------------          --------------          -------------   -----
00074.M2TS      4113 (0x1011)   0x02            MPEG-2                                  1125,725                5 861                   824 687 894     4 501 633
00074.M2TS      4352 (0x1100)   0x81            AC3             eng (English)           1125,725                192                     27 020 544      175 915
00074.M2TS      4608 (0x1200)   0x90            PGS             eng (English)           1125,725                20                      2 835 550       17 604
00074.M2TS      4609 (0x1201)   0x90            PGS             spa (Spanish)           1125,725                18                      2 485 251       15 739
00074.M2TS      4610 (0x1202)   0x90            PGS             nld (Dutch)             1125,725                15                      2 073 948       12 813
00000.M2TS      4113 (0x1011)   0x02            MPEG-2                                  899,699                 3 000                   337 438 235     1 849 664
00000.M2TS      4352 (0x1100)   0x81            AC3             eng (English)           899,699                 192                     21 593 856      140 585
00000.M2TS      4608 (0x1200)   0x90            PGS             eng (English)           899,699                 0                       1 936           18
00000.M2TS      4609 (0x1201)   0x90            PGS             spa (Spanish)           899,699                 0                       1 936           18
00000.M2TS      4610 (0x1202)   0x90            PGS             nld (Dutch)             899,699                 0                       1 936           18
00001.M2TS      4113 (0x1011)   0x02            MPEG-2                                  493,426                 3 001                   185 069 284     1 014 421
00001.M2TS      4352 (0x1100)   0x81            AC3             eng (English)           493,426                 192                     11 843 328      77 105
00001.M2TS      4608 (0x1200)   0x90            PGS             eng (English)           493,426                 0                       1 936           18
00001.M2TS      4609 (0x1201)   0x90            PGS             spa (Spanish)           493,426                 0                       1 936           18
00001.M2TS      4610 (0x1202)   0x90            PGS             nld (Dutch)             493,426                 0                       1 936           18
<---- END FORUMS PASTE ---->
QUICK SUMMARY:
Disc Title: Covenant, The (2006)
Disc Size: 33 085 951 248 bytes
Protection: AACS
BD-Java: No
Playlist: 00071.MPLS
Size: 1 514 889 216 bytes
Length: 0:41:59
Total Bitrate: 4,81 Mbps
Video: MPEG-2 Video / 4278 kbps / 480i / 29,970 fps / 4:3
Audio: English / Dolby Digital Audio / 2.0 / 48 kHz / 192 kbps / DN -3dB
Subtitle: English / 9,017 kbps
Subtitle: Dutch / 6,598 kbps
Subtitle: Spanish / 7,905 kbps
********************
PLAYLIST: 00070.MPLS
********************
<--- BEGIN FORUMS PASTE --->
Код:
Total   Video
Title                                                           Codec   Length  Movie Size      Disc Size       Bitrate Bitrate Main Audio Track                          Secondary Audio Track
-----                                                           ------  ------- --------------  --------------  ------- ------- ------------------                        ---------------------
00070.MPLS                                                      MPEG-2  0:02:34 364 296 192     33 085 951 248  18,91   17,24   DD AC3 5.1 640Kbps
Код:
DISC INFO:
Disc Title:     Covenant, The (2006)
Disc Size:      33 085 951 248 bytes
Protection:     AACS
BD-Java:        No
BDInfo:         0.5.6
PLAYLIST REPORT:
Name:                   00070.MPLS
Length:                 0:02:34 (h:m:s)
Size:                   364 296 192 bytes
Total Bitrate:          18,91 Mbps
VIDEO:
Codec                   Bitrate             Description
-----                   -------             -----------
MPEG-2 Video            17242 kbps          1080p / 23,976 fps / 16:9
AUDIO:
Codec                           Language        Bitrate         Description
-----                           --------        -------         -----------
Dolby Digital Audio             English         640 kbps        5.1 / 48 kHz / 640 kbps / DN -3dB
SUBTITLES:
Codec                           Language        Bitrate         Description
-----                           --------        -------         -----------
Presentation Graphics           Dutch           54,490 kbps
Presentation Graphics           Spanish         57,680 kbps
FILES:
Name            Time In         Length          Size            Total Bitrate
----            -------         ------          ----            -------------
00073.M2TS      0:00:00.000     0:02:34.154     364 296 192     18 906
CHAPTERS:
Number          Time In         Length          Avg Video Rate  Max 1-Sec Rate  Max 1-Sec Time  Max 5-Sec Rate  Max 5-Sec Time  Max 10Sec Rate  Max 10Sec Time  Avg Frame Size  Max Frame Size  Max Frame Time
------          -------         ------          --------------  --------------  --------------  --------------  --------------  --------------  --------------  --------------  --------------  --------------
1               0:00:00.000     0:02:34.154     17 242 kbps     29 684 kbps     00:02:16.678    23 255 kbps     00:02:14.926    21 631 kbps     00:02:11.339    89 889 bytes    576 030 bytes   00:00:36.953
STREAM DIAGNOSTICS:
File            PID             Type            Codec           Language                Seconds                 Bitrate                 Bytes           Packets
----            ---             ----            -----           --------                --------------          --------------          -------------   -----
00073.M2TS      4113 (0x1011)   0x02            MPEG-2                                  154,029                 17 256                  332 230 819     1 807 742
00073.M2TS      4352 (0x1100)   0x81            AC3             eng (English)           154,029                 641                     12 334 080      72 270
00073.M2TS      4608 (0x1200)   0x90            PGS             spa (Spanish)           154,029                 58                      1 111 459       6 250
00073.M2TS      4609 (0x1201)   0x90            PGS             nld (Dutch)             154,029                 55                      1 049 977       5 905
<---- END FORUMS PASTE ---->
QUICK SUMMARY:
Disc Title: Covenant, The (2006)
Disc Size: 33 085 951 248 bytes
Protection: AACS
BD-Java: No
Playlist: 00070.MPLS
Size: 364 296 192 bytes
Length: 0:02:34
Total Bitrate: 18,91 Mbps
Video: MPEG-2 Video / 17242 kbps / 1080p / 23,976 fps / 16:9
Audio: English / Dolby Digital Audio / 5.1 / 48 kHz / 640 kbps / DN -3dB
Subtitle: Dutch / 54,490 kbps
Subtitle: Spanish / 57,680 kbps
********************
PLAYLIST: 00101.MPLS
********************
<--- BEGIN FORUMS PASTE --->
Код:
Total   Video
Title                                                           Codec   Length  Movie Size      Disc Size       Bitrate Bitrate Main Audio Track                          Secondary Audio Track
-----                                                           ------  ------- --------------  --------------  ------- ------- ------------------                        ---------------------
00101.MPLS                                                      MPEG-2  0:02:33 374 525 952     33 085 951 248  19,54   17,73   DD AC3 5.1 640Kbps
Код:
DISC INFO:
Disc Title:     Covenant, The (2006)
Disc Size:      33 085 951 248 bytes
Protection:     AACS
BD-Java:        No
BDInfo:         0.5.6
PLAYLIST REPORT:
Name:                   00101.MPLS
Length:                 0:02:33 (h:m:s)
Size:                   374 525 952 bytes
Total Bitrate:          19,54 Mbps
VIDEO:
Codec                   Bitrate             Description
-----                   -------             -----------
MPEG-2 Video            17733 kbps          1080p / 23,976 fps / 16:9
AUDIO:
Codec                           Language        Bitrate         Description
-----                           --------        -------         -----------
Dolby Digital Audio             English         640 kbps        5.1 / 48 kHz / 640 kbps / DN -4dB
SUBTITLES:
Codec                           Language        Bitrate         Description
-----                           --------        -------         -----------
Presentation Graphics           Dutch           106,154 kbps
Presentation Graphics           Spanish         118,159 kbps
FILES:
Name            Time In         Length          Size            Total Bitrate
----            -------         ------          ----            -------------
00105.M2TS      0:00:00.000     0:02:33.361     374 525 952     19 537
CHAPTERS:
Number          Time In         Length          Avg Video Rate  Max 1-Sec Rate  Max 1-Sec Time  Max 5-Sec Rate  Max 5-Sec Time  Max 10Sec Rate  Max 10Sec Time  Avg Frame Size  Max Frame Size  Max Frame Time
------          -------         ------          --------------  --------------  --------------  --------------  --------------  --------------  --------------  --------------  --------------  --------------
1               0:00:00.000     0:02:33.361     17 733 kbps     40 737 kbps     00:02:20.890    30 797 kbps     00:02:19.389    27 968 kbps     00:02:15.218    92 450 bytes    673 752 bytes   00:02:29.566
STREAM DIAGNOSTICS:
File            PID             Type            Codec           Language                Seconds                 Bitrate                 Bytes           Packets
----            ---             ----            -----           --------                --------------          --------------          -------------   -----
00105.M2TS      4113 (0x1011)   0x02            MPEG-2                                  153,278                 17 742                  339 937 341     1 849 590
00105.M2TS      4352 (0x1100)   0x81            AC3             eng (English)           153,278                 640                     12 270 080      71 895
00105.M2TS      4608 (0x1200)   0x90            PGS             spa (Spanish)           153,278                 118                     2 265 125       12 636
00105.M2TS      4609 (0x1201)   0x90            PGS             nld (Dutch)             153,278                 106                     2 034 992       11 366
<---- END FORUMS PASTE ---->
QUICK SUMMARY:
Disc Title: Covenant, The (2006)
Disc Size: 33 085 951 248 bytes
Protection: AACS
BD-Java: No
Playlist: 00101.MPLS
Size: 374 525 952 bytes
Length: 0:02:33
Total Bitrate: 19,54 Mbps
Video: MPEG-2 Video / 17733 kbps / 1080p / 23,976 fps / 16:9
Audio: English / Dolby Digital Audio / 5.1 / 48 kHz / 640 kbps / DN -4dB
Subtitle: Dutch / 106,154 kbps
Subtitle: Spanish / 118,159 kbps
********************
PLAYLIST: 00103.MPLS
********************
<--- BEGIN FORUMS PASTE --->
Код:
Total   Video
Title                                                           Codec   Length  Movie Size      Disc Size       Bitrate Bitrate Main Audio Track                          Secondary Audio Track
-----                                                           ------  ------- --------------  --------------  ------- ------- ------------------                        ---------------------
00103.MPLS                                                      MPEG-2  0:02:32 443 983 872     33 085 951 248  23,26   21,61   DD AC3 5.1 448Kbps
Код:
DISC INFO:
Disc Title:     Covenant, The (2006)
Disc Size:      33 085 951 248 bytes
Protection:     AACS
BD-Java:        No
BDInfo:         0.5.6
PLAYLIST REPORT:
Name:                   00103.MPLS
Length:                 0:02:32 (h:m:s)
Size:                   443 983 872 bytes
Total Bitrate:          23,26 Mbps
VIDEO:
Codec                   Bitrate             Description
-----                   -------             -----------
MPEG-2 Video            21610 kbps          1080p / 23,976 fps / 16:9
AUDIO:
Codec                           Language        Bitrate         Description
-----                           --------        -------         -----------
Dolby Digital Audio             English         448 kbps        5.1 / 48 kHz / 448 kbps / DN -2dB
SUBTITLES:
Codec                           Language        Bitrate         Description
-----                           --------        -------         -----------
Presentation Graphics           Dutch           71,547 kbps
Presentation Graphics           Spanish         74,539 kbps
FILES:
Name            Time In         Length          Size            Total Bitrate
----            -------         ------          ----            -------------
00107.M2TS      0:00:00.000     0:02:32.694     443 983 872     23 261
CHAPTERS:
Number          Time In         Length          Avg Video Rate  Max 1-Sec Rate  Max 1-Sec Time  Max 5-Sec Rate  Max 5-Sec Time  Max 10Sec Rate  Max 10Sec Time  Avg Frame Size  Max Frame Size  Max Frame Time
------          -------         ------          --------------  --------------  --------------  --------------  --------------  --------------  --------------  --------------  --------------  --------------
1               0:00:00.000     0:02:32.694     21 611 kbps     33 153 kbps     00:01:15.075    28 778 kbps     00:02:12.006    26 964 kbps     00:02:07.001    112 667 bytes   657 476 bytes   00:00:00.417
STREAM DIAGNOSTICS:
File            PID             Type            Codec           Language                Seconds                 Bitrate                 Bytes           Packets
----            ---             ----            -----           --------                --------------          --------------          -------------   -----
00107.M2TS      4113 (0x1011)   0x02            MPEG-2                                  152,527                 21 634                  412 474 756     2 243 838
00107.M2TS      4352 (0x1100)   0x81            AC3             eng (English)           152,527                 449                     8 551 424       47 720
00107.M2TS      4608 (0x1200)   0x90            PGS             spa (Spanish)           152,527                 75                      1 422 701       8 005
00107.M2TS      4609 (0x1201)   0x90            PGS             nld (Dutch)             152,527                 72                      1 365 606       7 687
<---- END FORUMS PASTE ---->
QUICK SUMMARY:
Disc Title: Covenant, The (2006)
Disc Size: 33 085 951 248 bytes
Protection: AACS
BD-Java: No
Playlist: 00103.MPLS
Size: 443 983 872 bytes
Length: 0:02:32
Total Bitrate: 23,26 Mbps
Video: MPEG-2 Video / 21610 kbps / 1080p / 23,976 fps / 16:9
Audio: English / Dolby Digital Audio / 5.1 / 48 kHz / 448 kbps / DN -2dB
Subtitle: Dutch / 71,547 kbps
Subtitle: Spanish / 74,539 kbps
********************
PLAYLIST: 00102.MPLS
********************
<--- BEGIN FORUMS PASTE --->
Код:
Total   Video
Title                                                           Codec   Length  Movie Size      Disc Size       Bitrate Bitrate Main Audio Track                          Secondary Audio Track
-----                                                           ------  ------- --------------  --------------  ------- ------- ------------------                        ---------------------
00102.MPLS                                                      MPEG-2  0:02:27 356 536 320     33 085 951 248  19,37   17,65   DD AC3 5.1 640Kbps
Код:
DISC INFO:
Disc Title:     Covenant, The (2006)
Disc Size:      33 085 951 248 bytes
Protection:     AACS
BD-Java:        No
BDInfo:         0.5.6
PLAYLIST REPORT:
Name:                   00102.MPLS
Length:                 0:02:27 (h:m:s)
Size:                   356 536 320 bytes
Total Bitrate:          19,37 Mbps
VIDEO:
Codec                   Bitrate             Description
-----                   -------             -----------
MPEG-2 Video            17654 kbps          1080p / 23,976 fps / 16:9
AUDIO:
Codec                           Language        Bitrate         Description
-----                           --------        -------         -----------
Dolby Digital Audio             English         640 kbps        5.1 / 48 kHz / 640 kbps
SUBTITLES:
Codec                           Language        Bitrate         Description
-----                           --------        -------         -----------
Presentation Graphics           Dutch           71,397 kbps
Presentation Graphics           Spanish         75,732 kbps
FILES:
Name            Time In         Length          Size            Total Bitrate
----            -------         ------          ----            -------------
00106.M2TS      0:00:00.000     0:02:27.230     356 536 320     19 373
CHAPTERS:
Number          Time In         Length          Avg Video Rate  Max 1-Sec Rate  Max 1-Sec Time  Max 5-Sec Rate  Max 5-Sec Time  Max 10Sec Rate  Max 10Sec Time  Avg Frame Size  Max Frame Size  Max Frame Time
------          -------         ------          --------------  --------------  --------------  --------------  --------------  --------------  --------------  --------------  --------------  --------------
1               0:00:00.000     0:02:27.230     17 654 kbps     40 624 kbps     00:01:54.906    31 368 kbps     00:01:48.483    27 400 kbps     00:01:46.981    92 040 bytes    680 271 bytes   00:00:06.423
STREAM DIAGNOSTICS:
File            PID             Type            Codec           Language                Seconds                 Bitrate                 Bytes           Packets
----            ---             ----            -----           --------                --------------          --------------          -------------   -----
00106.M2TS      4113 (0x1011)   0x02            MPEG-2                                  147,147                 17 664                  324 900 996     1 767 856
00106.M2TS      4352 (0x1100)   0x81            AC3             eng (English)           147,147                 640                     11 778 560      69 015
00106.M2TS      4608 (0x1200)   0x90            PGS             spa (Spanish)           147,147                 76                      1 393 751       7 778
00106.M2TS      4609 (0x1201)   0x90            PGS             nld (Dutch)             147,147                 71                      1 313 975       7 348
<---- END FORUMS PASTE ---->
QUICK SUMMARY:
Disc Title: Covenant, The (2006)
Disc Size: 33 085 951 248 bytes
Protection: AACS
BD-Java: No
Playlist: 00102.MPLS
Size: 356 536 320 bytes
Length: 0:02:27
Total Bitrate: 19,37 Mbps
Video: MPEG-2 Video / 17654 kbps / 1080p / 23,976 fps / 16:9
Audio: English / Dolby Digital Audio / 5.1 / 48 kHz / 640 kbps
Subtitle: Dutch / 71,397 kbps
Subtitle: Spanish / 75,732 kbps
********************
PLAYLIST: 00067.MPLS
********************
<--- BEGIN FORUMS PASTE --->
Код:
Total   Video
Title                                                           Codec   Length  Movie Size      Disc Size       Bitrate Bitrate Main Audio Track                          Secondary Audio Track
-----                                                           ------  ------- --------------  --------------  ------- ------- ------------------                        ---------------------
00067.MPLS                                                      MPEG-2  0:01:00 118 216 704     33 085 951 248  15,75   15,01
Код:
DISC INFO:
Disc Title:     Covenant, The (2006)
Disc Size:      33 085 951 248 bytes
Protection:     AACS
BD-Java:        No
BDInfo:         0.5.6
PLAYLIST REPORT:
Name:                   00067.MPLS
Length:                 0:01:00 (h:m:s)
Size:                   118 216 704 bytes
Total Bitrate:          15,75 Mbps
VIDEO:
Codec                   Bitrate             Description
-----                   -------             -----------
MPEG-2 Video            15013 kbps          1080p / 23,976 fps / 16:9
FILES:
Name            Time In         Length          Size            Total Bitrate
----            -------         ------          ----            -------------
00069.M2TS      0:00:00.000     0:01:00.059     118 216 704     15 746
CHAPTERS:
Number          Time In         Length          Avg Video Rate  Max 1-Sec Rate  Max 1-Sec Time  Max 5-Sec Rate  Max 5-Sec Time  Max 10Sec Rate  Max 10Sec Time  Avg Frame Size  Max Frame Size  Max Frame Time
------          -------         ------          --------------  --------------  --------------  --------------  --------------  --------------  --------------  --------------  --------------  --------------
1               0:00:00.000     0:00:15.014     15 272 kbps     19 624 kbps     00:00:13.930    15 925 kbps     00:00:09.926    15 462 kbps     00:00:04.921    79 401 bytes    663 627 bytes   00:00:14.931
2               0:00:15.014     0:00:15.014     14 775 kbps     15 185 kbps     00:00:16.433    15 033 kbps     00:00:16.433    15 017 kbps     00:00:16.433    77 031 bytes    674 417 bytes   00:00:15.432
3               0:00:30.029     0:00:15.014     15 005 kbps     15 922 kbps     00:00:43.960    15 184 kbps     00:00:39.956    15 092 kbps     00:00:34.951    78 232 bytes    253 660 bytes   00:00:44.961
4               0:00:45.044     0:00:15.014     15 001 kbps     15 033 kbps     00:00:45.045    15 007 kbps     00:00:45.044    15 003 kbps     00:00:45.044    78 424 bytes    253 660 bytes   00:00:45.462
STREAM DIAGNOSTICS:
File            PID             Type            Codec           Language                Seconds                 Bitrate                 Bytes           Packets
----            ---             ----            -----           --------                --------------          --------------          -------------   -----
00069.M2TS      4113 (0x1011)   0x02            MPEG-2                                  59,935                  15 045                  112 712 665     613 678
<---- END FORUMS PASTE ---->
QUICK SUMMARY:
Disc Title: Covenant, The (2006)
Disc Size: 33 085 951 248 bytes
Protection: AACS
BD-Java: No
Playlist: 00067.MPLS
Size: 118 216 704 bytes
Length: 0:01:00
Total Bitrate: 15,75 Mbps
Video: MPEG-2 Video / 15013 kbps / 1080p / 23,976 fps / 16:9
Скриншоты:
                 -

_________________

Создавая "Новую папку", не считайте себя Создателем - это право Вам дано Админом


Other forum [Profile] [PM]
Display posts from previous:    
Reply to topic

The time now is: Today 11:38

All times are GMT + 3 Hours



You cannot post new topics in this forum
You cannot reply to topics in this forum
You cannot edit your posts in this forum
You cannot delete your posts in this forum
You cannot vote in polls in this forum
You cannot attach files in this forum
You cannot download files in this forum