Today is a free download without charge Download

Сделка с дьяволом / The Covenan (2006) [1080p] BDRip

Reply to topic
 
Author
Message

Varius ®

Gender:

Longevity: 11 years

Posts: 2428

Location: Hell

Торрент-статистика

Post 05-Feb-2012 15:03

[Quote]

Сделка с дьяволом / The Covenan (2006) [1080p] BDRip
«Сила магии. Магия молодости. Искушение властью.»
- Русское название: Сделка с дьяволом
Оригинальное название: The Covenan
Год выпуска: 2006
Производство: США
Жанр: фэнтези, боевик, триллер
Перевод: Профессиональный (полное дублирование)
Субтитры: Русские, английские
Режиссер: Ренни Харлин
Актеры: Стивен Стрэйт, Себастиан Стэн, Тоби Хемигуэй, Чейс Кроуфорд, Тэйлор Китш, Мэтт Остин, Ларри Дэй, Джессика Лукас, Лора Рэмси
Описание фильма:
В 1692 пять семейств, обладающих тайной силой, заключили договор молчания. На одну семью, жаждущую большей власти, был наложен запрет – их линия исчезла без следа. До сегодняшнего дня… Основанный на культовой графической новелле, фильм повествует мистическую историю четырех семейств, возглавляемых патриархами, обладающими сверхъестественными возможностями. Эта мистическая сила передается от отца к сыну на протяжении многих поколений. Новое поколение магов (в лице четырех сыновей патриархов) проводит лето, упражняясь в своих сверхчеловеческих возможностях и готовясь получить посвящение от отцов. В результате этих опасных занятий молодые люди странным образом высвобождают в мир мощную темную силу. Спустя четыре года им самим придется разбираться с ее нейтрализацией…-
Дата мировой премьеры: 8 сентября 2006
Дата российской премьеры: 7 сентября 2006, «Пирамида»-Продолжительность: 01:37:07
Качество видео: BDRip
Видеокодек: MPEG4 AVC/H.264
Битрейт видео: 10000 Кбит/сек
Размер кадра: 1920x816
Аудио:
Аудио 1: Русский, AC-3, 6 ch, 448 kbps, 48000 Hz (Профессиональный (полное дублирование))
Аудио 2: Английский, AC-3, 6 ch, 640 kbps, 48000 Hz

Знаете ли вы, что...

* Все пауки, которых насылал Чейз были сделаны с помощью компьютерной графики.
* Съемки внешнего вида Академии Спенсер происходили в Университете Бишопа, в Шербруке, Квебек, отсняты в конце 2005 года.
* Ренни Харлин, известен тем, что демонстрирует в своих фильмах предметы финской культуры. В «Сделке» он вешает на стену Сары известную финскую картину, нарисованную Хьюго Симбергом. Она назвается «Раненый ангел» - на ней изображен ангел и поддерживающие его два мальчика.
* Согласно комментариям на DVD, съемки пляжной вечеринки происходили в декабре. Первоначальное место съемки незадолго до их начала было затоплено и сцены пришлось переснимать на новой локации в последнюю минуту.
* Во время лекции по Стивену Кингу, Рид произносит фразу: ««Ловец снов» - это ништяк!». Книга рассказывает о четырех парнях, обладающих сверхъестественной силой, довольно близко к сюжету фильма.

MediaInfo

Общее
Уникальный идентификатор : 190624532208734498878255085230519177254 (0x8F68F31091775B39A755099AB2C35026)
Полное имя : F:\Раздачи\Сделка с дьяволом (2006) [1080p] BDRip.mkv
Формат : Matroska
Версия формата : Version 2
Размер файла : 7,52 Гбайт
Продолжительность : 1 ч. 37 м.
Общий поток : 11,1 Мбит/сек
Дата кодирования : UTC 2009-05-17 22:27:36
Программа кодирования : mkvmerge v2.7.0 ('Do It Again') built on Apr 15 2009 00:27:10
Библиотека кодирования : libebml v0.7.7 + libmatroska v0.8.1
Видео
Идентификатор : 1
Формат : AVC
Формат/Информация : Advanced Video Codec
Профиль формата : [url=mailto:[email protected]][email protected][/url]
Параметр CABAC формата : Да
Параметр ReFrames формата : 3 кадра
Идентификатор кодека : V_MPEG4/ISO/AVC
Продолжительность : 1 ч. 37 м.
Битрейт : 10000 Кбит/сек
Ширина : 1920 пикселей
Высота : 816 пикселей
Соотношение сторон : 2,35:1
Частота кадров : 23,976 кадра/сек
Цветовое пространство : YUV
Субдискретизация насыщенности : 4:2:0
Битовая глубина : 8 бит
Тип развёртки : Прогрессивная
Бит/(Пиксели*Кадры) : 0.266
Размер потока : 6,64 Гбайт (88%)
Библиотека кодирования : x264 core 64 r971kMod ead8857
Настройки программы : cabac=1 / ref=3 / deblock=1:-2:-1 / analyse=0x3:0x133 / me=umh / subme=7 / psy_rd=1.0:0.0 / brdo=1 / mixed_ref=1 / me_range=16 / chroma_me=1 / trellis=2 / 8x8dct=1 / cqm=0 / deadzone=21,11 / chroma_qp_offset=-2 / threads=4 / nr=0 / decimate=0 / mbaff=0 / bframes=3 / b_pyramid=0 / b_adapt=1 / b_bias=0 / direct=3 / wpredb=1 / bime=1 / keyint=250 / keyint_min=25 / scenecut=40(pre) / rc=2pass / bitrate=10000 / ratetol=1.0 / qcomp=0.60 / qpmin=10 / qpmax=51 / qpstep=4 / cplxblur=20.0 / qblur=0.5 / ip_ratio=1.40 / pb_ratio=1.30 / aq=1:1.00
Аудио #1
Идентификатор : 2
Формат : AC-3
Формат/Информация : Audio Coding 3
Расширение режима : CM (complete main)
Идентификатор кодека : A_AC3
Продолжительность : 1 ч. 37 м.
Вид битрейта : Постоянный
Битрейт : 448 Кбит/сек
Каналы : 6 каналов
Расположение каналов : Front: L C R, Side: L R, LFE
Частота : 48,0 КГц
Битовая глубина : 16 бит
Метод сжатия : С потерями
Размер потока : 311 Мбайт (4%)
Язык : Russian
Аудио #2
Идентификатор : 3
Формат : AC-3
Формат/Информация : Audio Coding 3
Расширение режима : CM (complete main)
Идентификатор кодека : A_AC3
Продолжительность : 1 ч. 37 м.
Вид битрейта : Постоянный
Битрейт : 640 Кбит/сек
Каналы : 6 каналов
Расположение каналов : Front: L C R, Side: L R, LFE
Частота : 48,0 КГц
Битовая глубина : 16 бит
Метод сжатия : С потерями
Размер потока : 445 Мбайт (6%)
Язык : English
Текст #1
Идентификатор : 4
Формат : UTF-8
Идентификатор кодека : S_TEXT/UTF8
Идентификатор кодека/Информация : UTF-8 Plain Text
Язык : Russian
Текст #2
Идентификатор : 5
Формат : UTF-8
Идентификатор кодека : S_TEXT/UTF8
Идентификатор кодека/Информация : UTF-8 Plain Text
Язык : English
Текст #3
Идентификатор : 6
Формат : UTF-8
Идентификатор кодека : S_TEXT/UTF8
Идентификатор кодека/Информация : UTF-8 Plain Text
Язык : English
Скриншоты:
       
       -

_________________

Создавая "Новую папку", не считайте себя Создателем - это право Вам дано Админом


Other forum [Profile] [PM]
Display posts from previous:    
Reply to topic

The time now is: Today 02:04

All times are GMT + 3 Hours



You cannot post new topics in this forum
You cannot reply to topics in this forum
You cannot edit your posts in this forum
You cannot delete your posts in this forum
You cannot vote in polls in this forum
You cannot attach files in this forum
You cannot download files in this forum