Today is a free download without charge Download

Колдовство / The Craft (1996) [720p] BDRip

Reply to topic
 
Author
Message

Varius ®

Gender:

Longevity: 11 years

Posts: 2428

Location: Hell

Торрент-статистика

Post 05-Feb-2012 14:50

[Quote]

Колдовство / The Craft (1996) [720p] BDRip
«Relax....It's only magic....»
- Русское название: Колдовство
Оригинальное название: The Craft
Год выпуска: 1996
Производство: США
Жанр: ужасы, фэнтези, триллер, драма
Перевод: Профессиональный (дублированный), профессиональный (многоголосый закадровый)
Субтитры: отсутствуют
Режиссер: Эндрю Флеминг
Актеры: Робин Танни, Файруза Балк, Нив Кэмпбелл, Рэйчел Тру, Скит Ульрих, Кристин Тейлор, Брекин Мейер, Натаниель Марстон, Клифф Де Янг, Ассумпта Серна
Описание фильма:
Три молодых ведьмочки, которых никто не переносит в собственной школе, в один прекрасный день вдруг интуитивно почувствовали, что вот-вот к ним присоединится четвертая.
И действительно, в классе появляется новенькая, и теперь их четверо, как и сказано в заклинании, и они могут расквитаться со всеми обидчиками. Заклинания, змеи, крысы, пауки — колдовская четверка не дает проходу половине города, и сами, судя по всему, получают от этого немалое удовольствие.
Но игра зашла слишком далеко — они разбудили колдовские силы, которые теперь не в силах остановить, даже когда гибнут ни в чем не повинные люди.-
Дата мировой премьеры: 3 мая 1996-Продолжительность: 01:40:58
Качество видео: BDRip
Видеокодек: MPEG4 AVC/H.264
Битрейт видео: 4685 Кбит/сек
Размер кадра: 1280x688
Аудио:
Аудио 1: Русский, AC3 5.1, 384 kbps, 48 kHz (Дубляж)
Аудио 2: Русский, AC3 2.0, 192 kbps, 48 kHz (Многоголосый)
Аудио 3: Английский, DTS 5.1, 1536 kbps, 48 kHz

Знаете ли вы, что...

* Съемки проходили в штате Калифорния, в городах Калвер-Сити, Лос-Анджелес и его пригородах Лонг-Бич и Малибу.
* Для съемок было импортировано более 3000 змей самых разных видов: удавы, боа, водяные змеи, 3-метровый амазонский констриктор и даже очень редкие змеи-альбиносы. К тому же в картине использовались попугаи, ящерицы, 50 больших крыс, множество тарантулов, 50 бабочек «Монарх», 2000 птичьих самок, 3000 личинок, 10000 немецких и больших тараканов с Мадагаскара, 15000 мучных червей и 20000 стерилизованных мух.
* Актриса Робин Танни при съемках фильма носила парик, так как одновременно с этим она снималась в другой картине «Рекорд Империи» и была вынуждена постоянно брить голову.
* В киноленте не упоминается название католической школы, в которой учились девочки, а в трейлере видно, что это была Академия святого Бернарда.

MediaInfo

Общее
Уникальный идентификатор : 240716770615652737910705546195084846591 (0xB5185D191DAA48D3B82AACDD8EC125FF)
Полное имя : F:\Раздачи\Колдовство (1996) [720p] BDRip.mkv
Формат : Matroska
Версия формата : Version 2
Размер файла : 4,78 Гбайт
Продолжительность : 1 ч. 40 м.
Общий поток : 6772 Кбит/сек
Дата кодирования : UTC 2009-10-14 07:23:35
Программа кодирования : mkvmerge v2.9.8 ('C'est le bon') built on Aug 13 2009 12:49:06
Библиотека кодирования : libebml v0.7.7 + libmatroska v0.8.1
Видео
Идентификатор : 1
Формат : AVC
Формат/Информация : Advanced Video Codec
Профиль формата : [url=mailto:[email protected]][email protected][/url]
Параметр CABAC формата : Да
Параметр ReFrames формата : 5 кадров
Идентификатор кодека : V_MPEG4/ISO/AVC
Продолжительность : 1 ч. 40 м.
Битрейт : 4685 Кбит/сек
Ширина : 1280 пикселей
Высота : 688 пикселей
Соотношение сторон : 1,860
Частота кадров : 23,976 кадра/сек
Цветовое пространство : YUV
Субдискретизация насыщенности : 4:2:0
Битовая глубина : 8 бит
Тип развёртки : Прогрессивная
Бит/(Пиксели*Кадры) : 0.222
Размер потока : 3,21 Гбайт (67%)
Библиотека кодирования : x264 core 76 r1271 496d79d
Настройки программы : cabac=1 / ref=5 / deblock=1:0:0 / analyse=0x3:0x2 / me=umh / subme=7 / psy=1 / psy_rd=1.0:0.0 / mixed_ref=1 / me_range=16 / chroma_me=1 / trellis=1 / 8x8dct=1 / cqm=0 / deadzone=21,11 / chroma_qp_offset=-2 / threads=3 / nr=0 / decimate=1 / mbaff=0 / bframes=3 / b_pyramid=0 / b_adapt=1 / b_bias=0 / direct=3 / wpredb=1 / keyint=250 / keyint_min=25 / scenecut=40 / rc_lookahead=40 / rc=2pass / mbtree=1 / bitrate=4685 / ratetol=1.0 / qcomp=0.60 / qpmin=10 / qpmax=51 / qpstep=4 / cplxblur=20.0 / qblur=0.5 / ip_ratio=1.40 / aq=1:1.00
Аудио #1
Идентификатор : 2
Формат : DTS
Формат/Информация : Digital Theater Systems
Идентификатор кодека : A_DTS
Продолжительность : 1 ч. 40 м.
Вид битрейта : Постоянный
Битрейт : 1510 Кбит/сек
Каналы : 6 каналов
Расположение каналов : Front: L C R, Side: L R, LFE
Частота : 48,0 КГц
Битовая глубина : 24 бит
Метод сжатия : С потерями
Размер потока : 1,06 Гбайт (22%)
Заголовок : DTS 5.1 1.5 Mbps
Язык : English
Аудио #2
Идентификатор : 3
Формат : AC-3
Формат/Информация : Audio Coding 3
Расширение режима : CM (complete main)
Идентификатор кодека : A_AC3
Продолжительность : 1 ч. 40 м.
Вид битрейта : Постоянный
Битрейт : 384 Кбит/сек
Каналы : 6 каналов
Расположение каналов : Front: L C R, Side: L R, LFE
Частота : 48,0 КГц
Битовая глубина : 16 бит
Метод сжатия : С потерями
Размер потока : 277 Мбайт (6%)
Заголовок : AC3 5.1 384 kbps
Язык : Russian
Аудио #3
Идентификатор : 4
Формат : AC-3
Формат/Информация : Audio Coding 3
Расширение режима : CM (complete main)
Идентификатор кодека : A_AC3
Продолжительность : 1 ч. 40 м.
Вид битрейта : Постоянный
Битрейт : 192 Кбит/сек
Каналы : 2 канала
Расположение каналов : Front: L R
Частота : 48,0 КГц
Битовая глубина : 16 бит
Метод сжатия : С потерями
Размер потока : 139 Мбайт (3%)
Заголовок : AC3 2.0 192 kbps
Язык : Russian
Текст #1
Идентификатор : 5
Формат : UTF-8
Идентификатор кодека : S_TEXT/UTF8
Идентификатор кодека/Информация : UTF-8 Plain Text
Язык : Russian
Текст #2
Идентификатор : 6
Формат : UTF-8
Идентификатор кодека : S_TEXT/UTF8
Идентификатор кодека/Информация : UTF-8 Plain Text
Язык : English
Скриншоты:
       
       -

_________________

Создавая "Новую папку", не считайте себя Создателем - это право Вам дано Админом


Other forum [Profile] [PM]
Display posts from previous:    
Reply to topic

The time now is: Today 11:23

All times are GMT + 3 Hours



You cannot post new topics in this forum
You cannot reply to topics in this forum
You cannot edit your posts in this forum
You cannot delete your posts in this forum
You cannot vote in polls in this forum
You cannot attach files in this forum
You cannot download files in this forum