Today is a free download without charge Download

Сделка с дьяволом / The Covenan (2006) [H.264] HDRip

Reply to topic
 
Author
Message

Varius ®

Gender:

Longevity: 10 years

Posts: 2428

Location: Hell

Торрент-статистика

Post 05-Feb-2012 10:48

[Quote]

Сделка с дьяволом / The Covenan (2006) [H.264] HDRip
«Сила магии. Магия молодости. Искушение властью.»
- Русское название: Сделка с дьяволом
Оригинальное название: The Covenan
Год выпуска: 2006
Производство: США
Жанр: фэнтези, боевик, триллер
Перевод: Профессиональный (полное дублирование)
Субтитры: Русские, английские
Режиссер: Ренни Харлин
Актеры: Стивен Стрэйт, Себастиан Стэн, Тоби Хемигуэй, Чейс Кроуфорд, Тэйлор Китш, Мэтт Остин, Ларри Дэй, Джессика Лукас, Лора Рэмси
Описание фильма:
В 1692 пять семейств, обладающих тайной силой, заключили договор молчания. На одну семью, жаждущую большей власти, был наложен запрет – их линия исчезла без следа. До сегодняшнего дня… Основанный на культовой графической новелле, фильм повествует мистическую историю четырех семейств, возглавляемых патриархами, обладающими сверхъестественными возможностями. Эта мистическая сила передается от отца к сыну на протяжении многих поколений. Новое поколение магов (в лице четырех сыновей патриархов) проводит лето, упражняясь в своих сверхчеловеческих возможностях и готовясь получить посвящение от отцов. В результате этих опасных занятий молодые люди странным образом высвобождают в мир мощную темную силу. Спустя четыре года им самим придется разбираться с ее нейтрализацией…-
Дата мировой премьеры: 8 сентября 2006
Дата российской премьеры: 7 сентября 2006, «Пирамида»-Продолжительность: 01:37:07
Качество видео: HDRip-AVC
Видеокодек: MPEG4 AVC/H.264
Битрейт видео: 2505 Кбит/сек
Размер кадра: 1168x496
Аудио:
Аудио 1: Русский, AC-3; 384 Кбит/сек; 48,0 КГц (Профессиональный (полное дублирование))
Аудио 2: Английский, AC-3; 384 Кбит/сек; 48,0 КГц

Знаете ли вы, что...

* Все пауки, которых насылал Чейз были сделаны с помощью компьютерной графики.
* Съемки внешнего вида Академии Спенсер происходили в Университете Бишопа, в Шербруке, Квебек, отсняты в конце 2005 года.
* Ренни Харлин, известен тем, что демонстрирует в своих фильмах предметы финской культуры. В «Сделке» он вешает на стену Сары известную финскую картину, нарисованную Хьюго Симбергом. Она назвается «Раненый ангел» - на ней изображен ангел и поддерживающие его два мальчика.
* Согласно комментариям на DVD, съемки пляжной вечеринки происходили в декабре. Первоначальное место съемки незадолго до их начала было затоплено и сцены пришлось переснимать на новой локации в последнюю минуту.
* Во время лекции по Стивену Кингу, Рид произносит фразу: ««Ловец снов» - это ништяк!». Книга рассказывает о четырех парнях, обладающих сверхъестественной силой, довольно близко к сюжету фильма.

MediaInfo

Общее
Уникальный идентификатор : 252953072968059317879365884696560243216 (0xBE4CFD61EB9A03479290E9FF2EB59210)
Полное имя : F:\Раздачи\Сделка с дьяволом (2006) [H.264] HDRip-AVC.mkv
Формат : Matroska
Версия формата : Version 2
Размер файла : 2,19 Гбайт
Продолжительность : 1 ч. 37 м.
Общий поток : 3226 Кбит/сек
Дата кодирования : UTC 2010-12-12 22:28:27
Программа кодирования : mkvmerge v4.3.0 ('Escape from the Island') сборка от Sep 5 2010 10:30:51
Библиотека кодирования : libebml v1.0.0 + libmatroska v1.0.0
Видео
Идентификатор : 1
Формат : AVC
Формат/Информация : Advanced Video Codec
Профиль формата : [url=mailto:[email protected]][email protected][/url]
Параметр CABAC формата : Да
Параметр ReFrames формата : 4 кадра
Режим смешивания : Header stripping
Идентификатор кодека : V_MPEG4/ISO/AVC
Продолжительность : 1 ч. 37 м.
Битрейт : 2505 Кбит/сек
Ширина : 1168 пикселей
Высота : 496 пикселей
Соотношение сторон : 2,35:1
Режим частоты кадров : Переменный
Частота кадров : 23,976 кадра/сек
Цветовое пространство : YUV
Субдискретизация насыщенности : 4:2:0
Битовая глубина : 8 бит
Тип развёртки : Прогрессивная
Бит/(Пиксели*Кадры) : 0.180
Размер потока : 1,62 Гбайт (74%)
Заголовок : The.Covenant.2006.HQRIP.s1Paris
Библиотека кодирования : x264 core 93 r1542 5b86182
Настройки программы : cabac=1 / ref=3 / deblock=1:0:0 / analyse=0x3:0x113 / me=umh / subme=9 / psy=1 / psy_rd=1.00:0.00 / mixed_ref=1 / me_range=16 / chroma_me=1 / trellis=1 / 8x8dct=1 / cqm=0 / deadzone=21,11 / fast_pskip=1 / chroma_qp_offset=-2 / threads=3 / sliced_threads=0 / nr=0 / decimate=1 / interlaced=0 / constrained_intra=0 / bframes=3 / b_pyramid=2 / b_adapt=1 / b_bias=0 / direct=1 / wpredb=1 / wpredp=2 / keyint=250 / keyint_min=25 / scenecut=40 / intra_refresh=0 / rc_lookahead=40 / rc=abr / mbtree=1 / bitrate=2505 / ratetol=1.0 / qcomp=0.65 / qpmin=10 / qpmax=51 / qpstep=4 / ip_ratio=1.40 / aq=1:1.00
Язык : Russian
Аудио #1
Идентификатор : 2
Формат : AC-3
Формат/Информация : Audio Coding 3
Расширение режима : CM (complete main)
Режим смешивания : Header stripping
Идентификатор кодека : A_AC3
Продолжительность : 1 ч. 37 м.
Вид битрейта : Постоянный
Битрейт : 384 Кбит/сек
Каналы : 6 каналов
Расположение каналов : Front: L C R, Side: L R, LFE
Частота : 48,0 КГц
Битовая глубина : 16 бит
Метод сжатия : С потерями
Размер потока : 267 Мбайт (12%)
Заголовок : Дубляж
Язык : Russian
Аудио #2
Идентификатор : 3
Формат : AC-3
Формат/Информация : Audio Coding 3
Расширение режима : CM (complete main)
Режим смешивания : Header stripping
Идентификатор кодека : A_AC3
Продолжительность : 1 ч. 37 м.
Вид битрейта : Постоянный
Битрейт : 384 Кбит/сек
Каналы : 6 каналов
Расположение каналов : Front: L C R, Side: L R, LFE
Частота : 48,0 КГц
Битовая глубина : 16 бит
Метод сжатия : С потерями
Размер потока : 267 Мбайт (12%)
Заголовок : Английский
Язык : English
Текст #1
Идентификатор : 4
Формат : UTF-8
Идентификатор кодека : S_TEXT/UTF8
Идентификатор кодека/Информация : UTF-8 Plain Text
Заголовок : Русские
Язык : Russian
Текст #2
Идентификатор : 5
Формат : UTF-8
Идентификатор кодека : S_TEXT/UTF8
Идентификатор кодека/Информация : UTF-8 Plain Text
Заголовок : Английские
Язык : English
Скриншоты:
         
         -

_________________

Создавая "Новую папку", не считайте себя Создателем - это право Вам дано Админом


Other forum [Profile] [PM]
Display posts from previous:    
Reply to topic

The time now is: Today 21:20

All times are GMT + 3 Hours



You cannot post new topics in this forum
You cannot reply to topics in this forum
You cannot edit your posts in this forum
You cannot delete your posts in this forum
You cannot vote in polls in this forum
You cannot attach files in this forum
You cannot download files in this forum