Today is a free download without charge Download

Кухня в Париже (Дмитрий Дьяченко) [2014, Россия, комедия, BDRip 1080p] - Original Rus -

Reply to topic
 
Author
Message

Omen ®

Longevity: 8 years 10 months

Posts: 181086

Торрент-статистика

Post 18-Nov-2014 23:00

[Quote]

-- Кухня в Париже
«Bon appétit!»
-- Страна: Россия
Жанр: комедия
Год выпуска: 2014
Продолжительность: 01:46:42-Перевод: не требуется
Cубтитры: нет
Оригинальная аудиодорожка: русский-Режиссер: Дмитрий Дьяченко
В ролях: Дмитрий Назаров, Елена Подкаминская, Марк Богатырев, Дмитрий Нагиев, Олег Табаков, Венсан Перес, Виктор Хориняк, Ольга Кузьмина, Сергей Лавыгин, Никита Тарасов, Михаил Тарабукин и другие-Описание: Модный столичный ресторан «Клод Моне» процветает. Именно здесь, в родном заведении Вика и Максим хотят отпраздновать долгожданную свадьбу. Но планы меняются, когда в ресторане назначают переговоры Президентов России и Франции! Команда ресторана терпит фиаско и вынуждена отправиться в «изгнание» — в Париж. Там Шеф с Максом сталкиваются с опасными конкурентами: Шеф — с ближайшим родственником, а Максим — с красавцем Николя, который кружит Вике голову не хуже искристого шампанского! И это еще не все вызовы, которые бросает им «Город любви», ведь надо постараться спасти репутацию, накормить Президентов и преодолеть миллион препятствий à la française…- Мировая премьера: 01 мая 2014 г. | Премьера Россия: 01 мая 2014 г.Бюджет: $2 300 000- -Тип релиза: BDRip 1080p
Контейнер: MKV
Видео: 1920x800р (2.40:1), 24,000 fps, AVC ~ 9900 kbps avg, 0.269 bit/pixel
Аудио: 48 kHz, DTS 3/2 (L,C,R,l,r) + LFE ch ~ 1509 kbps avg

MediaInfo

Код:
Общее
Уникальный идентификатор                 : 199319699084862411919170738881896022279 (0x95F393E3F9B5A3BABB974359159E8107)
Полное имя                               : Kuhnya.v.Parige.2014.BDRip.1080p.mkv
Формат                                   : Matroska
Версия формата                           : Version 4 / Version 2
Размер файла                             : 8,50 Гбайт
Продолжительность                        : 1 ч. 46 м.
Общий поток                              : 11,4 Мбит/сек
Название фильма                          : Kuhnya.v.Parige.2014.BDRip.1080p
Дата кодирования                         : UTC 2014-11-16 08:54:04
Программа кодирования                    : mkvmerge v7.1.0 ('Good Love') 64bit built on Jul 27 2014 13:06:55
Библиотека кодирования                   : libebml v1.3.0 + libmatroska v1.4.1
Attachements                             : cover.jpg
_STATISTICS_WRITING_APP                  : mkvmerge v7.1.0 ('Good Love') 64bit built on Jul 27 2014 13:06:55
_STATISTICS_WRITING_DATE_UTC             : 2014-11-16 08:54:04
_STATISTICS_TAGS                         : BPS DURATION NUMBER_OF_FRAMES NUMBER_OF_BYTES
DURATION                                 : 01:46:42.336000000
NUMBER_OF_FRAMES                         : 600219
NUMBER_OF_BYTES                          : 1207640696
Видео
Идентификатор                            : 1
Формат                                   : AVC
Формат/Информация                        : Advanced Video Codec
Профиль формата                          : [email protected]
Параметр CABAC формата                   : Да
Параметр ReFrames формата                : 4 кадра
Идентификатор кодека                     : V_MPEG4/ISO/AVC
Продолжительность                        : 1 ч. 46 м.
Битрейт                                  : 9900 Кбит/сек
Ширина                                   : 1920 пикселей
Высота                                   : 800 пикселей
Соотношение сторон                       : 2,40:1
Режим частоты кадров                     : Постоянный
Частота кадров                           : 24,000 кадра/сек
Цветовое пространство                    : YUV
Субдискретизация насыщенности            : 4:2:0
Битовая глубина                          : 8 бит
Тип развёртки                            : Прогрессивная
Бит/(Пиксели*Кадры)                      : 0.269
Размер потока                            : 7,21 Гбайт (85%)
Заголовок                                : Kuhnya.v.Parige.2014.BDRip.1080p
Библиотека кодирования                   : x264 core 142 r2431 ac76440
Настройки программы                      : cabac=1 / ref=4 / deblock=1:-3:-2 / analyse=0x3:0x113 / me=umh / subme=11 / psy=1 / psy_rd=1.00:0.00 / mixed_ref=1 / me_range=32 / chroma_me=1 / trellis=2 / 8x8dct=1 / cqm=0 / deadzone=21,11 / fast_pskip=1 / chroma_qp_offset=-2 / threads=12 / lookahead_threads=1 / sliced_threads=0 / nr=0 / decimate=1 / interlaced=0 / bluray_compat=0 / constrained_intra=0 / bframes=5 / b_pyramid=2 / b_adapt=1 / b_bias=0 / direct=2 / weightb=1 / open_gop=0 / weightp=2 / keyint=240 / keyint_min=24 / scenecut=40 / intra_refresh=0 / rc_lookahead=40 / rc=2pass / mbtree=1 / bitrate=9900 / ratetol=1.0 / qcomp=0.60 / qpmin=0 / qpmax=69 / qpstep=4 / cplxblur=20.0 / qblur=0.5 / vbv_maxrate=62500 / vbv_bufsize=78125 / nal_hrd=none / filler=0 / ip_ratio=1.40 / aq=1:1.00 / zones=149750,153654,q=40
Язык                                     : Russian
Default                                  : Да
Forced                                   : Нет
_STATISTICS_WRITING_APP                  : mkvmerge v7.1.0 ('Good Love') 64bit built on Jul 27 2014 13:06:55
_STATISTICS_WRITING_DATE_UTC             : 2014-11-16 08:54:04
_STATISTICS_TAGS                         : BPS DURATION NUMBER_OF_FRAMES NUMBER_OF_BYTES
DURATION                                 : 01:46:42.292000000
NUMBER_OF_FRAMES                         : 153655
NUMBER_OF_BYTES                          : 7919874126
Аудио
Идентификатор                            : 2
Формат                                   : DTS
Формат/Информация                        : Digital Theater Systems
Режим                                    : 16
Параметр Endianness формата              : Big
Идентификатор кодека                     : A_DTS
Продолжительность                        : 1 ч. 46 м.
Вид битрейта                             : Постоянный
Битрейт                                  : 1509 Кбит/сек
Каналы                                   : 6 каналов
Расположение каналов                     : Front: L C R, Side: L R, LFE
Частота                                  : 48,0 КГц
Битовая глубина                          : 16 бит
Метод сжатия                             : С потерями
Размер потока                            : 1,12 Гбайт (13%)
Заголовок                                : Russian
Язык                                     : Russian
Default                                  : Да
Forced                                   : Нет

Интересные факты

»»» Весной 2013 года создатели сериала «Кухня» (2012) встретились в Париже, чтобы отметить выход 2 сезона проекта. Во время прогулок по набережным Сены возникла идея снимать во французской столице фильм «Кухня».
»»» Съемки начались 6 сентября 2013 г. в Париже, а закончились 18 февраля 2014 г. в Москве. Всего на работу потребовалось 53 съемочных дня.
»»» Съемки в Париже были осложнены многочисленными бюрократическими процедурами. Буквально все перемещения съемочной группы регулировались специальными разрешениями, полиция (как «сухопутная», так и речная) проводила постоянные проверки.
»»» Во Франции в съемочной группе было более 35 французов. Местные кинематографисты отмечали, что это беспрецедентная цифра для иностранного проекта.
»»» В первый же день снимали сложнейшую сцену в Париже: встречу Президентов Франции и России, в которой были задействованы десятки актеров и статистов, транспорт и сложная техника.
»»» На роль Николя, начальника протокола французского Президента, создатели рассматривали Венсана Касселя.
»»» Венсан Перес помогал Елене Подкаминской и Никите Тарасову осваивать все нюансы французского произношения.
»»» Памятна всей группе и съемка в парижском квартале, где хозяйничают выходцы из Сенегала. Дмитрий Дьяченко рассказывает: «Местные полицейские нам сразу обозначили: разрешение на съемку – это не к нам. И пришлось договариваться с мафиози. Они не были похожи на карикатурных афроамериканских гангстеров: это были утонченные «прифранцуженные» люди в шикарных костюмах и на дорогих мерседесах. Но они такую цену заломили, что пришлось снимать неподалеку, где поспокойнее. И все равно было страшновато. Известный факт, что у Люка Бессона там однажды камеру отбирали, и он ездил выкупать ее у главного босса».
»»» Чтобы снять пробег мыши по полу и вид «глазами мыши», технари из съемочной группы соорудили специальное устройство — мини-кран. Интересных ракурсов удалось добиться и «фаршируя» камерой GoPro утку, а также поместив камеру в суп.
»»» Девушек-костюмеров и реквизиторов сотрудники парижского аэропорта приняли за челноков: у них было 20 баулов с костюмами и реквизитом. Также в Париж и обратно ездила целая фура с мебелью и техникой.
»»» Очень долго пришлось добиваться разрешения на прыжок каскадера в Сену. Ему даже пришлось делать специальную прививку. А полицейские, которые возникли с проверкой как только прыжок состоялся, предложили впредь обращаться к ним, так как они — «известные прыгуны».

Киноляпы

»»» Сеня во французском ресторане ворует вилку. А возвращает Баринову ложку.
Other forum [Profile] [PM]
Display posts from previous:    
Reply to topic

The time now is: Today 14:40

All times are GMT + 3 Hours



You cannot post new topics in this forum
You cannot reply to topics in this forum
You cannot edit your posts in this forum
You cannot delete your posts in this forum
You cannot vote in polls in this forum
You cannot attach files in this forum
You cannot download files in this forum