Today is a free download without charge Download

Охотники за головами / Hodejegerne (Мортен Тильдум / Morten Tyldum) [2011, Германия, Норвегия, боевик, триллер, криминал, DVD9] R5 «Кармен Видео»

Reply to topic
 
Author
Message

voovaz ®

Gender:

Longevity: 9 years 5 months

Posts: 87

Торрент-статистика

Post 03-Feb-2012 20:27

[Quote]

-Охотники за головами / Hodejegerne -Страна: Германия, Норвегия
Студия: ARD Degeto Film GmbH, Friland A/S, Nordisk Film A/S, Yellow Bird Films AB
Жанр: боевик, триллер, криминал
Год выпуска: 2011
Мировая премьера: 4 августа 2011
Российская премьера: 12 января 2012, «Каравелла DDC»
Дата выхода DVD: 1 февраля 2012, «Кармен Видео»
Продолжительность: 01:36:01
Перевод: Профессиональный (дублированный) [Лицензия]
Cубтитры: нет-Режиссер: Мортен Тильдум / Morten Tyldum-В ролях: Николай Костер-Вальдау, Юлье Ольгорд, Аксель Хенни, Бор Ове, Йоахим Рафаелсен, Эйвинд Сэндер, Нильс Йорген Каалстад, Карре Хаген Сиднесс, Рейдар Серенсен-Описание: Роджер Браун — блестящий «охотник за головами», незаменимый специалист по подбору топ-менеджеров для крупнейших фирм. Он может найти нужного человека на любую должность и его рекомендация — залог получения работы. Чтобы удержать красавицу жену, открывшую на деньги мужа картинную галерею в модном районе, Роджер давно уже живет не по средствам, и, пользуясь своим служебным положением, крадет дорогие картины у претендентов на руководящие должности.
Однажды Роджер встречает голландца Класа Граафа: идеального кандидата для фирмы специализирующейся на навигационном оборудовании и — вот удача! — владельца картины Рубенса, считавшейся утерянной во время Второй Мировой войны. Кража и последующая продажа шедевра может помочь Роджеру навсегда решить все финансовые проблемы.
Но, внезапно, «охотник за головами» сам превращается в добычу.
-Бонусы: нет- -Релиз группы: -Качество: DVD9 R5
Формат: DVD-Video
Видео кодек: MPEG2
Аудио кодек: AC3
Видео: PAL 16:9 (720x576(0.772)) MPEG Video, 25,000 кадр/сек, 8000 Кбит/сек
Аудио: Russian (Dolby AC3, 6 ch) 448 Кбит/сек, 48,0 КГц-
-

DVDInfo

Title:
Size: 6.02 Gb ( 6 309 078 KBytes ) - DVD-9
Enabled regions: 1, 2, 3, 4, 5, 6, 7, 8
VTS_01 :
Play Length: 01:36:01
Video: PAL 16:9 (720x576) VBR, Auto Pan&Scan
Audio:
Russian (Dolby AC3, 6 ch)
VTS_02 :
Play Length: 00:01:21
Video: PAL 16:9 (720x576) VBR, Auto Pan&Scan
Audio:
Russian (Dolby AC3, 2 ch)
Menu Video:
PAL 4:3 (720x576) VBR
Menu Subtitles:
Not specified
Menu English Language Unit :
Root Menu

MediaInfo

Общее
Полное имя : G:\Новинки 2012\Ohotniki.za.golovami.2011.DVD9\VIDEO_TS\VTS_01_2.VOB
Формат : MPEG-PS
Размер файла : 1024 Мбайт
Продолжительность : 16 м.
Общий поток : 8586 Кбит/сек
Видео
Идентификатор : 224 (0xE0)
Формат : MPEG Video
Версия формата : Version 2
Профиль формата : [email protected]
Параметр BVOP формата : Да
Параметр матрицы формата : Выборочная
Параметр GOP формата : M=3, N=15
Продолжительность : 16 м.
Битрейт : 8000 Кбит/сек
Ширина : 720 пикселей
Высота : 576 пикселей
Соотношение сторон : 16:9
Частота кадров : 25,000 кадров/сек
Стандарт вещания : PAL
Цветовое пространство : YUV
Субдискретизация насыщенности : 4:2:0
Битовая глубина : 8 бит
Тип развёртки : Прогрессивная
Метод сжатия : С потерями
Бит/(Пиксели*Кадры) : 0.772
Размер потока : 950 Мбайт (93%)
Аудио
Идентификатор : 189 (0xBD)-128 (0x80)
Формат : AC-3
Формат/Информация : Audio Coding 3
Расширение режима : CM (complete main)
Режим смешивания : DVD-Video
Продолжительность : 16 м.
Вид битрейта : Постоянный
Битрейт : 448 Кбит/сек
Каналы : 6 каналов
Расположение каналов : Front: L C R, Side: L R, LFE
Частота : 48,0 КГц
Битовая глубина : 16 бит
Метод сжатия : С потерями
Задержка видео : -560 мс.
Размер потока : 53,4 Мбайт (5%)

Скриншоты меню

   

Скриншоты фильма

               
-
-
-
-
Other forum [Profile] [PM]

wolr

Longevity: 9 years 3 months

Posts: 5

Торрент-статистика

Post 04-Feb-2012 15:17 (after 18 hours)

[Quote]

спасибо
Other forum [Profile] [PM]
Similar theme
Forum Topic Author Torrent Replies Last Post
./templates/default/images/folder_dl.gif Приключения и квесты Mystery Trackers: Blackrow\'s Secret Collector\'s Edition / Охотники за тайнами. Загадка рода Блэкроу. Коллекционное издание [P] [RUS / ENG] (2014) Omen
1 | 0

0 | 2620

27

2015-06-06 00:09
Omen Latest
Display posts from previous:    
Reply to topic

The time now is: Today 01:17

All times are GMT + 3 Hours



You cannot post new topics in this forum
You cannot reply to topics in this forum
You cannot edit your posts in this forum
You cannot delete your posts in this forum
You cannot vote in polls in this forum
You cannot attach files in this forum
You cannot download files in this forum