Today is a free download without charge Download

Принц и нищий / Crossed Swords (Ричард Флайшер / Richard Fleischer)[1977.,Приключения, Семейный] DVDRip [H.264]

Reply to topic
 
Author
Message

sashau ®

Gender:

Longevity: 9 years 4 months

Posts: 3497

Торрент-статистика

Post 12-Nov-2014 20:05

[Quote]

Принц и нищий / Crossed Swords - Год выпуска: 1977
Жанр: Приключения, Семейный
Описание фильма:
По мотивам одноименного романа Марка Твена.
Действие картины происходит во времена средневековой Англии.
Нищий становится повелителем Англии, а монарх вкушает горечь и унижение, уготованные беднякам в его королевстве. Явившись в неведомый ему до того мир нищеты и лишений, маленький принц тотчас же заступается за невинно обиженных, а нищий Том Кенти в королевском дворце с той же зоркостью и непосредственностью детской души рушит хитросплетения несправедливых законов...
Режиссер: Ричард Флайшер / Richard Fleischer
Актеры: : Оливер Рид, Рэкел Уэлч, Марк Лестер, Эрнест Боргнайн, Джордж К. Скотт, Рекс Харрисон, Дэвид Хеммингс, Гарри Эндрюс, Джулиан Орхард, Мюррэй Мелвин
Продолжительность: 02:01:31
Качество видео: DVDRip [H.264]
Перевод: Дублированный

Видеокодек: MPEG-4 AVC/H.264
Битрейт видео: ~2140 kbps
Размер кадра: [email protected]
Аудиокодек: AC3 2.0
Битрейт аудио: 192 kbps

MediaInfo:

Общее
Уникальный идентификатор : 219139688301264678980203693437867051709 (0xA4DCC4CE2187AB79B9884F3775B4CABD)
Полное имя : K:\-\-\Принц и нищий_1977\Принц и нищий_1977\Принц и нищий_1977.mkv
Формат : Matroska
Версия формата : Version 2
Размер файла : 2,02 Гбайт
Продолжительность : 2 ч. 1 м.
Режим общего битрейта : Переменный
Общий поток : 2379 Кбит/сек
Дата кодирования : UTC 2014-11-08 18:11:47
Программа кодирования : mkvmerge v6.2.0 ('Promised Land') built on Apr 28 2013 12:22:01
Библиотека кодирования : libebml v1.3.0 + libmatroska v1.4.0
Видео
Идентификатор : 1
Формат : AVC
Формат/Информация : Advanced Video Codec
Профиль формата : [url=mailto:[email protected]][email protected][/url]
Параметр CABAC формата : Да
Параметр ReFrames формата : 2 кадра
Режим смешивания : Container [email protected]
Идентификатор кодека : V_MPEG4/ISO/AVC
Продолжительность : 2 ч. 1 м.
Вид битрейта : Переменный
Битрейт : 2140 Кбит/сек
Максимальный битрейт : 22,0 Мбит/сек
Ширина : 720 пикселей
Высота : 400 пикселей
Соотношение сторон : 2,40:1
Режим частоты кадров : Постоянный
Частота кадров : 23,976 кадра/сек
Цветовое пространство : YUV
Субдискретизация насыщенности : 4:2:0
Битовая глубина : 8 бит
Тип развёртки : Прогрессивная
Бит/(Пиксели*Кадры) : 0.310
Размер потока : 1,82 Гбайт (90%)
Язык : English
Default : Да
Forced : Нет
Аудио
Идентификатор : 2
Формат : AC-3
Формат/Информация : Audio Coding 3
Расширение режима : CM (complete main)
Параметр Endianness формата : Big
Идентификатор кодека : A_AC3
Продолжительность : 2 ч. 1 м.
Вид битрейта : Постоянный
Битрейт : 192 Кбит/сек
Каналы : 2 канала
Расположение каналов : Front: L R
Частота : 48,0 КГц
Битовая глубина : 16 бит
Метод сжатия : С потерями
Размер потока : 167 Мбайт (8%)
Default : Да
Forced : Нет
Скриншоты:                
Other forum [Profile] [PM]
Display posts from previous:    
Reply to topic

The time now is: Today 19:20

All times are GMT + 3 Hours



You cannot post new topics in this forum
You cannot reply to topics in this forum
You cannot edit your posts in this forum
You cannot delete your posts in this forum
You cannot vote in polls in this forum
You cannot attach files in this forum
You cannot download files in this forum