Today is a free download without charge Download

Девушка с татуировкой дракона / The Girl with the Dragon Tattoo (Дэвид Финчер / David Fincher) [2011, США, Германия, Швеция, Великобритания, триллер, драма, криминал, детектив, DVD9] R5 «Columbia/Son

Reply to topic
 
Author
Message

voovaz ®

Gender:

Longevity: 9 years 5 months

Posts: 87

Торрент-статистика

Post 01-Feb-2012 23:11

[Quote]

-Девушка с татуировкой дракона / The Girl with the Dragon Tattoo-«She's coming.» -Страна: США, Германия, Швеция, Великобритания
Студия: Columbia Pictures, Film Rites, Ground Control, Metro-Goldwyn-Mayer (MGM), Scott Rudin Productions, Yellow Bird Films AB
Жанр: триллер, драма, криминал, детектив
Год выпуска: 2011
Мировая премьера: 12 декабря 2011
Российская премьера: 2 января 2012, «WDSSPR»
Дата выхода DVD: 7 февраля 2012, «Columbia/Sony»
Продолжительность: 02:31:42
Перевод: Профессиональный (дублированный) [Лицензия]
Cубтитры: русские-Режиссер: Дэвид Финчер / David Fincher-В ролях: Дэниэл Крэйг, Стеллан Скарсгард, Руни Мара, Робин Райт, Кристофер Пламмер, Эмбет Дэвидц, Юэль Чиннаман, Джоэли Ричардсон, Горан Вишнич, Джулиан Сэндс-Описание: Сорок лет назад Харриет Вангер бесследно пропала на острове, принадлежащем могущественному клану Вангер. Ее тело так и не было найдено, но ее дядя убежден, что это убийство и что убийца является членом его собственной, тесно сплоченной и неблагополучной семьи. Он нанимает опального журналиста Микаэля Блумквиста и татуированную хакершу Лисбет Саландер для проведения расследования.-Бонусы: нет- -Качество: DVD9 R5
Формат: DVD-Video
Видео кодек: MPEG2
Аудио кодек: AC3
Видео: PAL 16:9 (720x576(0.518)) MPEG Video, 25,000 кадр/сек, 5371 Кбит/сек
Аудио #1: Russian (Dolby AC3, 6 ch) 448 Кбит/с, 48,0 КГц
Аудио #2: Ukrainian (Dolby AC3, 6 ch) 448 Кбит/с, 48,0 КГц-
-

DVDInfo

Title: Рабочий
Size: 6.84 Gb ( 7 171 268 KBytes ) - DVD-9
Enabled regions: 1, 2, 3, 4, 5, 6, 7, 8
VTS_01 :
Play Length: 02:31:42
Video: PAL 16:9 (720x576) VBR, Auto Letterboxed
Audio:
Russian (Dolby AC3, 6 ch)
Ukrainian (Dolby AC3, 6 ch)
Subtitles:
Russian
Menu Video:
PAL 16:9 (720x576) VBR
Auto Letterboxed
Menu Audio:
Not specified (Dolby AC3, 6 ch)
Menu Subtitles:
Not specified
Menu Russian Language Unit :
Root Menu
Audio Menu
Chapter (PTT) Menu

MediaInfo

Общее
Полное имя : G:\Новинки 2012\Devushka.s.tatuirovkoj.drakona.2011.DVD9\VIDEO_TS\VTS_01_1.VOB
Формат : MPEG-PS
Размер файла : 1024 Мбайт
Продолжительность : 22 м.
Режим общего битрейта : Переменный
Общий поток : 6394 Кбит/сек
Видео
Идентификатор : 224 (0xE0)
Формат : MPEG Video
Версия формата : Version 2
Профиль формата : [email protected]
Параметр BVOP формата : Да
Параметр матрицы формата : Выборочная
Продолжительность : 22 м.
Вид битрейта : Переменный
Битрейт : 5371 Кбит/сек
Максимальный битрейт : 9000 Кбит/сек
Ширина : 720 пикселей
Высота : 576 пикселей
Соотношение сторон : 16:9
Частота кадров : 25,000 кадров/сек
Стандарт вещания : PAL
Цветовое пространство : YUV
Субдискретизация насыщенности : 4:2:0
Битовая глубина : 8 бит
Тип развёртки : Прогрессивная
Порядок развёртки : Верхнее поле первое
Метод сжатия : С потерями
Бит/(Пиксели*Кадры) : 0.518
Размер потока : 860 Мбайт (84%)
Аудио #1
Идентификатор : 189 (0xBD)-128 (0x80)
Формат : AC-3
Формат/Информация : Audio Coding 3
Расширение режима : CM (complete main)
Режим смешивания : DVD-Video
Продолжительность : 22 м.
Вид битрейта : Постоянный
Битрейт : 448 Кбит/сек
Каналы : 6 каналов
Расположение каналов : Front: L C R, Side: L R, LFE
Частота : 48,0 КГц
Битовая глубина : 16 бит
Метод сжатия : С потерями
Размер потока : 71,7 Мбайт (7%)
Аудио #2
Идентификатор : 189 (0xBD)-129 (0x81)
Формат : AC-3
Формат/Информация : Audio Coding 3
Расширение режима : CM (complete main)
Режим смешивания : DVD-Video
Продолжительность : 22 м.
Вид битрейта : Постоянный
Битрейт : 448 Кбит/сек
Каналы : 6 каналов
Расположение каналов : Front: L C R, Side: L R, LFE
Частота : 48,0 КГц
Битовая глубина : 16 бит
Метод сжатия : С потерями
Размер потока : 71,7 Мбайт (7%)

Скриншоты меню

     

Скриншоты фильма

               
-
-
-
-
Other forum [Profile] [PM]
Display posts from previous:    
Reply to topic

The time now is: Today 01:15

All times are GMT + 3 Hours



You cannot post new topics in this forum
You cannot reply to topics in this forum
You cannot edit your posts in this forum
You cannot delete your posts in this forum
You cannot vote in polls in this forum
You cannot attach files in this forum
You cannot download files in this forum