Today is a free download without charge Download

Грибы 3D / One Way Trip 3D (Маркус Вельтер / Markus Welter) [2011, Швейцария, Австрия, ужасы, DVD9] R5 «Мистерия Звука»

Reply to topic
 
Author
Message

voovaz ®

Gender:

Longevity: 9 years 5 months

Posts: 87

Торрент-статистика

Post 01-Feb-2012 19:42

[Quote]

-Грибы 3D / One Way Trip 3D-«Потеря контроля - это только начало» -Страна: Швейцария, Австрия
Студия: HesseGreutert Film AG, Superfilm
Жанр: ужасы
Мировая премьера: 6 сентября 2011
Российская премьера: 1 декабря 2011, «Top Film Distribution» 3D
Дата выхода DVD: 26 января 2012, «Мистерия Звука»
Дата выхода Blu-Ray: 2 февраля 2012, «Мистерия Звука»
Год выпуска: 2011
Продолжительность: 01:25:45
Перевод: Профессиональный (дублированный) [Лицензия]
Cубтитры: нет-Режиссер: Маркус Вельтер / Markus Welter-В ролях: Сабрина Рейтер, Мелани Винигер, Херберт Лайзер, Мартин Лус, Аарон Хиц, Маттиас Бритшджи, Саймон Кэсер, Изабелль Барт, Гарри Лампль, Таня Рауниг.-Описание: В центре событий группа молодых людей отправившихся в лес на поиски галлюциногенных грибов. Добравшись до места, они начинают сбор грибов, а вечером решают немного оттянуться. Веселье заканчивается, когда один из ребят, отлучившийся за пивом, возвращается с разбитым в кровь лицом. Что с ним случилось, он понятия не имеет. Ребята решают срочно уйти из леса, но обнаруживают, что их машина кем-то сломана, а телефоны не работают. Они решают искать помощи на ближайшей ферме, которую они приметили по дороге в лес. Но туда не стоило идти. Неизвестные охотники начинают убивать ребят одного за другим…-Бонусы: нет- -Сэмпл 2D Сэмпл 3D-Качество: DVD9 R5
Формат: DVD-Video
Видео кодек: MPEG2
Аудио кодек: AC3
Видео: PAL 16:9 (720x576(0.441)) MPEG Video, 25,000 кадр/сек, 4570 Кбит/сек
Аудио: Russian (Dolby AC3, 6 ch) 448 Кбит/сек, 48,0 КГц-
-

DVDInfo

Title:
Size: 7.25 Gb ( 7 607 362 KBytes ) - DVD-9
Enabled regions: 1, 2, 3, 4, 5, 6, 7, 8
VTS_01 :
Play Length: 00:00:16
Video: PAL 16:9 (720x576) VBR, Auto Pan&Scan
Audio:
Russian (Dolby AC3, 2 ch)
VTS_02 :
Play Length: 01:25:45
Video: PAL 16:9 (720x576) VBR, Auto Pan&Scan
Audio:
Russian (Dolby AC3, 6 ch)
VTS_03 :
Play Length: 01:25:45
Video: PAL 16:9 (720x576) VBR, Auto Pan&Scan
Audio:
Russian (Dolby AC3, 6 ch)
Menu Video:
PAL 16:9 (720x576) VBR
Auto Pan&Scan
Menu Audio:
Not specified (Dolby AC3, 2 ch)
Menu Subtitles:
Not specified
Menu Russian Language Unit :
Root Menu
Chapter (PTT) Menu

MediaInfo

Общее
Полное имя : G:\Новинки 2012\Griby.3D.2011.DVD9\VIDEO_TS\VTS_02_3.VOB
Формат : MPEG-PS
Размер файла : 1024 Мбайт
Продолжительность : 27 м.
Режим общего битрейта : Переменный
Общий поток : 5120 Кбит/сек
Видео
Идентификатор : 224 (0xE0)
Формат : MPEG Video
Версия формата : Version 2
Профиль формата : [email protected]
Параметр BVOP формата : Да
Параметр матрицы формата : Выборочная
Параметр GOP формата : M=3, N=15
Продолжительность : 27 м.
Вид битрейта : Переменный
Битрейт : 4570 Кбит/сек
Максимальный битрейт : 8500 Кбит/сек
Ширина : 720 пикселей
Высота : 576 пикселей
Соотношение сторон : 16:9
Частота кадров : 25,000 кадров/сек
Стандарт вещания : PAL
Цветовое пространство : YUV
Субдискретизация насыщенности : 4:2:0
Битовая глубина : 8 бит
Тип развёртки : Прогрессивная
Метод сжатия : С потерями
Бит/(Пиксели*Кадры) : 0.441
Размер потока : 914 Мбайт (89%)
Аудио
Идентификатор : 189 (0xBD)-128 (0x80)
Формат : AC-3
Формат/Информация : Audio Coding 3
Расширение режима : CM (complete main)
Режим смешивания : DVD-Video
Продолжительность : 27 м.
Вид битрейта : Постоянный
Битрейт : 448 Кбит/сек
Каналы : 6 каналов
Расположение каналов : Front: L C R, Side: L R, LFE
Частота : 48,0 КГц
Битовая глубина : 16 бит
Метод сжатия : С потерями
Задержка видео : -304 мс.
Размер потока : 89,6 Мбайт (9%)

Скриншоты меню

     

Скриншоты фильма в 2D

               

Скриншоты фильма в 3D

               
-
-
-
-
Other forum [Profile] [PM]
Display posts from previous:    
Reply to topic

The time now is: Today 13:44

All times are GMT + 3 Hours



You cannot post new topics in this forum
You cannot reply to topics in this forum
You cannot edit your posts in this forum
You cannot delete your posts in this forum
You cannot vote in polls in this forum
You cannot attach files in this forum
You cannot download files in this forum