Today is a free download without charge Download

Курортный туман (Арман Геворгян) [2012, Россия, Детектив, триллер, HDTV 1080i]

Reply to topic
 
Author
Message

Omen ®

Longevity: 8 years 10 months

Posts: 181086

Торрент-статистика

Post 05-Nov-2014 17:02

[Quote]

Курортный туман
Год выпуска: 2012
Производство: Россия, Berg Sound
Жанр: Детектив, триллер
Продолжительность: ~ 01:32:14
Субтитры: нет
Режиссёр: Арман Геворгян
В ролях: Алёна Бабенко, Эльдар Лебедев, Александр Рапопорт, Ирина Чериченко, Алёна Стебунова, Юрий Кормушин, Сергей Астахов, Виктория Рунцова
Описание: В курортном городе происходит странное и загадочное убийство олигарха Владимира Серого. Криминальная полиция начинает расследование, в которое вовлечены люди из близкого окружения жертвы. Во время расследования происходят не менее загадочные убийства лиц так или иначе причастных к этому делу.

Качество: HDTV 1080i
Контейнер: TS
Видео: MPEG4 Video (H264) 1920x1080, ~ 5958 Кбит/сек, 25.00fps 0.115 bit/pixel
Аудио: AC-3, 6 ch, 48,0 КГц, 448 Кбит/с
Сторонней рекламы нет!

MediaInfo

ОбщееИдентификатор : 1 (0x1)Полное имя : F:\Фильмы торренты\Kurortnyy.tuman.2012.HDTV.(1080i).MediaClub.tsФормат : MPEG-TSРазмер файла : 4,35 ГбайтПродолжительность : 1 ч. 32 м.Режим общего битрейта : ПеременныйОбщий поток : 6744 Кбит/сек
ВидеоИдентификатор : 69 (0x45)Идентификатор меню : 1 (0x1)Формат : AVCФормат/Информация : Advanced Video CodecПрофиль формата : [email protected]Параметр CABAC формата : ДаПараметр ReFrames формата : 3 кадраИдентификатор кодека : 27Продолжительность : 1 ч. 32 м.Битрейт : 5958 Кбит/секШирина : 1920 пикселейВысота : 1080 пикселейСоотношение сторон : 16:9Частота кадров : 25,000 кадров/секСтандарт вещания : ComponentЦветовое пространство : YUVСубдискретизация насыщенности : 4:2:0Битовая глубина : 8 битТип развёртки : ЧересстрочнаяПорядок развёртки : Верхнее поле первоеБит/(Пиксели*Кадры) : 0.115Размер потока : 3,84 Гбайт (88%)Основные цвета : BT.709Характеристики трансфера : BT.709Коэффициенты матрицы : BT.709
АудиоИдентификатор : 68 (0x44)Идентификатор меню : 1 (0x1)Формат : AC-3Формат/Информация : Audio Coding 3Расширение режима : CM (complete main)Параметр Endianness формата : BigИдентификатор кодека : 129Продолжительность : 1 ч. 32 м.Вид битрейта : ПостоянныйБитрейт : 448 Кбит/секКаналы : 6 каналовРасположение каналов : Front: L C R, Side: L R, LFEЧастота : 48,0 КГцБитовая глубина : 16 битМетод сжатия : С потерямиРазмер потока : 296 Мбайт (7%)Язык : Russian

Скриншот c названием фильма

Скриншоты

Other forum [Profile] [PM]
Display posts from previous:    
Reply to topic

The time now is: Today 14:16

All times are GMT + 3 Hours



You cannot post new topics in this forum
You cannot reply to topics in this forum
You cannot edit your posts in this forum
You cannot delete your posts in this forum
You cannot vote in polls in this forum
You cannot attach files in this forum
You cannot download files in this forum