Today is a free download without charge Download

Вий (Олег Степченко) [2013 г., Россия, триллер, BDRip 720p]

Reply to topic
 
Author
Message

Omen ®

Longevity: 8 years 10 months

Posts: 181086

Торрент-статистика

Post 05-Nov-2014 02:04

[Quote]

Вий
Страна: Россия
Жанр: триллер
Год выпуска: 2013
Продолжительность: 02:10:12
Cубтитры: нет
Режиссер: Олег Степченко
В ролях: Джейсон Флеминг, Андрей Смоляков, Алексей Чадов, Агния Дитковските, Юрий Цурило, Ольга Зайцева, Александр Яковлев, Игорь Жижикин, Валерий Золотухин, Нина Русланова и др.
Описание: Начало XVIII века. Картограф Джонатан Грин совершает научное путешествие из Европы на Восток. Проследовав через Трансильванию и преодолев Карпатские горы, он попадает в затерянную среди непроходимых лесов деревушку. Только воля случая и густой туман могли занести его в это проклятое место. Народ, живущий здесь, не похож ни на один доселе виданный путешественником. Эти люди, оградив себя от остального мира глубоким рвом, наивно верят, что смогут уберечься от нечисти, не понимая, что она уже давно поселилась в их душах и только ждёт случая, чтобы вырваться наружу. Даже в страшном сне учёный-материалист не предполагал, что здесь ему уготована встреча с верным слугой дьявола.
Сэмпл: https://www.sendspace.com/file/7s8uz2
Источник: hdclub
Тип релиза: BDRip 720p
Контейнер: MKV
Видео: 1280x728 (1,78:1), 23.976 fps, AVC (H.264) ~5300 kbps avg, 0.237 bit/pixel
Аудио : Russian / AC3 Dolbi Digital / 5.1 / 48 kHz / 448 kbps

MediaInfo

General
Unique ID : 175304043946358775545880233202223240419 (0x83E254ACBE2BEF58ACC78174924954E3)
Complete name : D:\КИНО\Вий.mkv
Format : Matroska
Format version : Version 4 / Version 2
File size : 5.22 GiB
Duration : 2h 10mn
Overall bit rate : 5 745 Kbps
Encoded date : UTC 2014-11-04 21:48:17
Writing application : mkvmerge v7.3.0 ('Nouages') 32bit built on Oct 22 2014 18:44:01
Writing library : libebml v1.3.0 + libmatroska v1.4.1
_STATISTICS_WRITING_APP : mkvmerge v7.3.0 ('Nouages') 32bit built on Oct 22 2014 18:44:01
_STATISTICS_WRITING_DATE_UTC : 2014-11-04 21:48:17
_STATISTICS_TAGS : BPS DURATION NUMBER_OF_FRAMES NUMBER_OF_BYTES
DURATION : 02:10:12.384000000
NUMBER_OF_FRAMES : 244137
NUMBER_OF_BYTES : 437493504
Video
ID : 1
Format : AVC
Format/Info : Advanced Video Codec
Format profile : [email protected]
Format settings, CABAC : Yes
Format settings, ReFrames : 8 frames
Codec ID : V_MPEG4/ISO/AVC
Duration : 2h 10mn
Bit rate : 5 300 Kbps
Width : 1 280 pixels
Height : 728 pixels
Display aspect ratio : 16:9
Frame rate mode : Constant
Frame rate : 23.976 fps
Color space : YUV
Chroma subsampling : 4:2:0
Bit depth : 8 bits
Scan type : Progressive
Bits/(Pixel*Frame) : 0.237
Stream size : 4.71 GiB (90%)
Writing library : x264 core 142 r2431 ac76440
Encoding settings : cabac=1 / ref=8 / deblock=1:-2:-1 / analyse=0x3:0x133 / me=umh / subme=10 / psy=1 / psy_rd=1.00:0.10 / mixed_ref=1 / me_range=32 / chroma_me=1 / trellis=2 / 8x8dct=1 / cqm=0 / deadzone=21,11 / fast_pskip=0 / chroma_qp_offset=-3 / threads=3 / lookahead_threads=1 / sliced_threads=0 / nr=0 / decimate=1 / interlaced=0 / bluray_compat=0 / constrained_intra=0 / bframes=10 / b_pyramid=0 / b_adapt=2 / b_bias=0 / direct=3 / weightb=1 / open_gop=0 / weightp=2 / keyint=240 / keyint_min=23 / scenecut=40 / intra_refresh=0 / rc_lookahead=60 / rc=2pass / mbtree=1 / bitrate=5300 / ratetol=1.0 / qcomp=0.60 / qpmin=10 / qpmax=51 / qpstep=4 / cplxblur=20.0 / qblur=0.5 / vbv_maxrate=62500 / vbv_bufsize=78125 / nal_hrd=none / filler=0 / ip_ratio=1.40 / aq=1:1.00
Default : Yes
Forced : No
Audio
ID : 2
Format : AC-3
Format/Info : Audio Coding 3
Mode extension : CM (complete main)
Format settings, Endianness : Big
Codec ID : A_AC3
Duration : 2h 10mn
Bit rate mode : Constant
Bit rate : 448 Kbps
Channel count : 6 channels
Channel positions : Front: L C R, Side: L R, LFE
Sampling rate : 48.0 KHz
Bit depth : 16 bits
Compression mode : Lossy
Stream size : 417 MiB (8%)
Default : Yes
Forced : No

Скриншоты

лог

---[Information] [03.11.2014 23:01:23] avs [info]: 1280x728p 1:1 @ 24000/1001 fps (cfr)
---[Information] [03.11.2014 23:01:23] x264 [info]: using SAR=1/1
---[Information] [03.11.2014 23:01:23] x264 [info]: using cpu capabilities: MMX2 SSE2Fast LZCNT
---[Information] [03.11.2014 23:01:23] x264 [info]: profile High, level 4.1
---[Information] [05.11.2014 0:24:21] x264 [info]: frame I:1963 Avg QP:15.97 size:170931
---[Information] [05.11.2014 0:24:21] x264 [info]: frame P:66235 Avg QP:18.87 size: 51669
---[Information] [05.11.2014 0:24:21] x264 [info]: frame B:119112 Avg QP:21.98 size: 11860
---[Information] [05.11.2014 0:24:21] x264 [info]: consecutive B-frames: 3.4% 16.9% 63.5% 7.8% 4.2% 2.9% 0.7% 0.1% 0.1% 0.1% 0.3%
---[Information] [05.11.2014 0:24:21] x264 [info]: mb I I16..4: 6.8% 68.2% 25.0%
---[Information] [05.11.2014 0:24:21] x264 [info]: mb P I16..4: 1.3% 11.4% 1.5% P16..4: 40.4% 23.2% 16.9% 1.1% 0.4% skip: 3.9%
---[Information] [05.11.2014 0:24:21] x264 [info]: mb B I16..4: 0.2% 1.1% 0.2% B16..8: 38.4% 9.9% 2.7% direct: 5.9% skip:41.5% L0:36.6% L1:46.1% BI:17.3%
---[Information] [05.11.2014 0:24:21] x264 [info]: 8x8 transform intra:78.1% inter:61.0%
---[Information] [05.11.2014 0:24:21] x264 [info]: direct mvs spatial:88.8% temporal:11.2%
---[Information] [05.11.2014 0:24:21] x264 [info]: coded y,uvDC,uvAC intra: 82.9% 74.4% 46.0% inter: 31.3% 23.8% 4.6%
---[Information] [05.11.2014 0:24:21] x264 [info]: i16 v,h,dc,p: 27% 15% 15% 43%
---[Information] [05.11.2014 0:24:21] x264 [info]: i8 v,h,dc,ddl,ddr,vr,hd,vl,hu: 13% 8% 9% 9% 13% 13% 12% 11% 12%
---[Information] [05.11.2014 0:24:21] x264 [info]: i4 v,h,dc,ddl,ddr,vr,hd,vl,hu: 13% 8% 6% 9% 14% 14% 13% 11% 13%
---[Information] [05.11.2014 0:24:21] x264 [info]: i8c dc,h,v,p: 46% 22% 20% 13%
---[Information] [05.11.2014 0:24:21] x264 [info]: Weighted P-Frames: Y:9.7% UV:4.6%
---[Information] [05.11.2014 0:24:21] x264 [info]: ref P L0: 58.0% 15.5% 11.8% 5.0% 3.3% 2.4% 1.8% 1.1% 1.0% 0.1%
---[Information] [05.11.2014 0:24:21] x264 [info]: ref B L0: 88.3% 5.6% 2.7% 1.3% 0.9% 0.7% 0.6%
---[Information] [05.11.2014 0:24:21] x264 [info]: kb/s:5294.71
---[Information] [05.11.2014 0:24:21] encoded 187310 frames, 2.05 fps, 5294.71 kb/s
Other forum [Profile] [PM]
Display posts from previous:    
Reply to topic

The time now is: Today 14:40

All times are GMT + 3 Hours



You cannot post new topics in this forum
You cannot reply to topics in this forum
You cannot edit your posts in this forum
You cannot delete your posts in this forum
You cannot vote in polls in this forum
You cannot attach files in this forum
You cannot download files in this forum