Today is a free download without charge Download

Решающая схватка / The Showdown / Hyultu (Hoon-jung Park) [2011 г., боевик, драма, BDRemux]

Reply to topic
 
Author
Message

ALEXXX1983 ®

Gender:

Longevity: 9 years 2 months

Posts: 107

Location: Саратов

Торрент-статистика

Post 01-Feb-2012 00:03

[Quote]

Решающая схватка / The Showdown / Hyultu Год выпуска: 2011
Страна: Корея Южная
Жанр: боевик, драма
Продолжительность: 01:46:32
Перевод: Любительский (одноголосый закадровый)
Режиссер: Hoon-jung Park
Сценарий: Hoon-jung Park
Премьера в мире: 24 февраля 2011

В ролях: Пак Хи-сун / Park Hee-Soon, Чжин Гу / Jin Goo, Ко Чан-сок / Ko Chang-Seok, Ким Кап-су / Kim Kap-Soo-Описание: Китайская Маньчжурия, 1619 год. Шел 11-й год правления короля Чосона Гван Хе-гуна. После жестокого сражения, которое больше походило на кровавую бойню трое военных, генерал армии Чосона и его друг, командир подчиненного ему подразделения, а также один из рядовых солдат покинули поле битвы до конца боя, для того чтобы остаться в живых. По дороге домой всех трех застает жестокая пурга. И единственным спасением для них оказался постоялый двор, на котором останавливались купцы, торговавшие между Чосоном и Минь-Качество: BDRemux
Формат: MKV
Видео кодек: Другой MPEG4
Аудио кодек: AC3
Видео: AVC; 1920x1080 (16:9); 25 fps; 15996 kbps
Аудио #1: Русский, AC3; 6ch; 48kHz; CBR; 384 Kbps
Аудио #2: Korean; DTS-HD MA 5.1; 48kHz; 24bit, 3531 kbps
Субтитры: Русские, English, German ( UTF-8; SRT )
Релиз от:

Скриншоты

           

MI

General
Unique ID : 206800896545970178375114679018850507399 (0x9B9467673242EAD190CA90C2B6825A87)
Complete name : Reshayshaya.Shvatka.2011.BDRemux.1080i-tRuAVC.mkv
Format : Matroska
Format version : Version 2
File size : 14.8 GiB
Duration : 1h 46mn
Overall bit rate : 19.9 Mbps
Movie name : The Showdown (2011) BDRemux AVC.AC3.DTSHD-MA - tRuAVC
Encoded date : UTC 2011-08-31 08:44:36
Writing application : mkvmerge v3.4.0 ('Rapunzel') built on May 15 2010 09:38:20
Writing library : libebml v0.8.0 + libmatroska v0.9.0
Cover : Cover Picture
TITLE : The Showdown (2011)
DATE_RELEASED : 31th August 2011
COMMENT : BD-Remux (The.Showdown.2010.BluRay.1080i.AVC.DTS-HD.MA5.1-CHDBits)
REMUXED_BY : [tRuAVC]vladimiryakushin
Video
ID : 1
Format : AVC
Format/Info : Advanced Video Codec
Format profile : [email protected]
Format settings, CABAC : Yes
Format settings, ReFrames : 4 frames
Muxing mode : Container [email protected]
Codec ID : V_MPEG4/ISO/AVC
Duration : 1h 46mn
Bit rate mode : Variable
Bit rate : 17.6 Mbps
Maximum bit rate : 35.0 Mbps
Width : 1 920 pixels
Height : 1 080 pixels
Display aspect ratio : 16:9
Frame rate : 25.000 fps
Color space : YUV
Chroma subsampling : 4:2:0
Bit depth : 8 bits
Scan type : MBAFF
Bits/(Pixel*Frame) : 0.339
Stream size : 13.1 GiB (88%)
Title : MPEG4-AVC.1920x1080
Audio #1
ID : 2
Format : AC-3
Format/Info : Audio Coding 3
Mode extension : CM (complete main)
Codec ID : A_AC3
Duration : 1h 46mn
Bit rate mode : Constant
Bit rate : 384 Kbps
Channel(s) : 6 channels
Channel positions : Front: L C R, Side: L R, LFE
Sampling rate : 48.0 KHz
Bit depth : 16 bits
Compression mode : Lossy
Stream size : 293 MiB (2%)
Title : Russian - VO
Language : Russian
Audio #2
ID : 3
Format : DTS
Format/Info : Digital Theater Systems
Format profile : MA / Core
Codec ID : A_DTS
Duration : 1h 46mn
Bit rate mode : Variable
Bit rate : 1 561 Kbps / 1 510 Kbps
Channel(s) : 6 channels
Channel positions : Front: L C R, Side: L R, LFE
Sampling rate : 48.0 KHz
Bit depth : 24 bits
Compression mode : Lossless / Lossy
Title : Korean
Language : Korean
Text #1
ID : 4
Format : UTF-8
Codec ID : S_TEXT/UTF8
Codec ID/Info : UTF-8 Plain Text
Title : Russian
Language : Russian
Text #2
ID : 5
Format : UTF-8
Codec ID : S_TEXT/UTF8
Codec ID/Info : UTF-8 Plain Text
Title : English
Language : English
Text #3
ID : 6
Format : UTF-8
Codec ID : S_TEXT/UTF8
Codec ID/Info : UTF-8 Plain Text
Title : German
Language : German
Menu
00:00:00.000 : en:Scene 01
00:08:52.920 : en:Scene 02
00:17:17.960 : en:Scene 03
00:25:58.880 : en:Scene 04
00:34:42.520 : en:Scene 05
00:45:11.880 : en:Scene 06
00:51:43.920 : en:Scene 07
01:02:17.560 : en:Scene 08
01:09:22.559 : en:Scene 09
01:21:11.639 : en:Scene 10
01:29:16.959 : en:Scene 11
01:37:18.559 : en:Scene 12
P.S. Все красное и зеленое кликабельно ( мне было скучно ). Crazy

_________________
Сенатор с DOMSARa


Other forum [Profile] [PM]
Display posts from previous:    
Reply to topic

The time now is: Today 02:40

All times are GMT + 3 Hours



You cannot post new topics in this forum
You cannot reply to topics in this forum
You cannot edit your posts in this forum
You cannot delete your posts in this forum
You cannot vote in polls in this forum
You cannot attach files in this forum
You cannot download files in this forum