Today is a free download without charge Download

Не бойся темноты / Don't Be Afraid of the Dark (Трой Никси / Troy Nixey) [2010, США, Мексика, Австралия, ужасы, фэнтези, триллер, DVD9] R5 «West Video»

Reply to topic
 
Author
Message

voovaz ®

Gender:

Longevity: 9 years 5 months

Posts: 87

Торрент-статистика

Post 31-Jan-2012 23:09

[Quote]

-Не бойся темноты / Don't Be Afraid of the Dark-«Страх ничто просто верь» -Страна: США, Мексика, Австралия
Студия: Gran Via, Miramax Films, Tequila Gang
Жанр: ужасы, фэнтези, триллер
Год выпуска: 2010
Мировая премьера: 6 ноября 2010
Российская премьера: 13 октября 2011, «West»
Дата выхода DVD: 31 января 2012, «West Video»
Дата выхода Blu-Ray: 31 января 2012, «West Video»
Продолжительность: 01:35:01
Перевод: Профессиональный (дублированный) [Лицензия]
Cубтитры: русские, украинские
Оригинальная аудиодорожка: английский-Режиссер: Трой Никси / Troy Nixey-В ролях: Кэти Холмс, Гай Пирс, Бэйли Мэдисон, Джек Томпсон, Брюс Глисон, Эдвина Ричард, Гарри МакДональд, Кэролин Шекспир-Аллен, Джулия Блейк, Дэвид Точчи-Описание: Салли Хёрст — одинокая замкнутая девочка, которая приезжает на Род Айленд, чтобы пожить со своим отцом и его девушкой в старинном особняке девятнадцатого века, который они реставрируют. Исследуя обветшавший дом, Салли находит потайной подвал, куда никто не заглядывал с момента загадочного исчезновения архитектора особняка, произошедшего больше века назад.
Сама того не желая, Салли выпускает на свободу древние порождения тьмы, которые собираются затащить ее в страшную бездну, скрывающуюся под полом старого дома. Теперь ей предстоит убедить Алекса и Ким, что это не плод ее фантазии — пока отталкивающие существа не поглотили их всех.
-Бонусы: О фильме, на съемочной площадке, трейлер, анонсы- -Качество: DVD9 R5
Формат: DVD-Video
Видео кодек: MPEG2
Аудио кодек: AC3 + DTS
Видео: PAL 16:9 (720x576(0.714)) MPEG Video, 25,000 кадр/сек, 7400 Кбит/сек
Аудио #1: Russian (Dolby AC3, 6 ch) 448 Кбит/сек, 48,0 КГц
Аудио #2: English (Dolby AC3, 6 ch) 448 Кбит/сек, 48,0 КГц
Аудио #3: Russian (DTS, 5 ch) 768 Кбит/сек, 48,0 КГц
Аудио #4: Ukrainian (Dolby AC3, 6 ch) 448 Кбит/сек, 48,0 КГц-
-

DVDInfo

Title: Рабочий
Size: 7.52 Gb ( 7 884 078 KBytes ) - DVD-9
Enabled regions: 1, 2, 3, 4, 5, 6, 7, 8
VTS_01 :
Play Length: 00:00:23
Video: PAL 4:3 (720x576) VBR
VTS_02 :
Play Length: 00:00:31
Video: PAL 4:3 (720x576) VBR
Audio:
English (Dolby AC3, 6 ch)
VTS_03 :
Play Length: 00:03:59
Video: PAL 16:9 (720x576) VBR, Auto Letterboxed
Audio:
Russian (Dolby AC3, 2 ch)
English (Dolby AC3, 2 ch)
VTS_04 :
Play Length: 00:06:38
Video: PAL 16:9 (720x576) VBR, Auto Letterboxed
Audio:
English (Dolby AC3, 2 ch)
English (Dolby AC3, 2 ch)
VTS_05 :
Play Length: 00:02:24
Video: PAL 16:9 (720x576) VBR, Auto Letterboxed
Audio:
Russian (Dolby AC3, 2 ch)
Russian (Dolby AC3, 2 ch)
VTS_06 :
Play Length: 00:01:57
Video: PAL 16:9 (720x576) VBR, Auto Letterboxed
Audio:
Russian (Dolby AC3, 2 ch)
Russian (Dolby AC3, 2 ch)
VTS_07 :
Play Length: 00:02:16
Video: PAL 16:9 (720x576) VBR, Auto Letterboxed
Audio:
Russian (Dolby AC3, 2 ch)
Russian (Dolby AC3, 2 ch)
VTS_08 :
Play Length: 00:01:10
Video: PAL 4:3 (720x576) VBR
Audio:
English (Dolby AC3, 2 ch)
English (Dolby AC3, 2 ch)
VTS_09 :
Play Length: 01:35:01
Video: PAL 16:9 (720x576) VBR, Auto Pan&Scan, Auto Letterboxed
Audio:
Russian (Dolby AC3, 6 ch)
English (Dolby AC3, 6 ch)
Russian (DTS, 5 ch)
Ukrainian (Dolby AC3, 6 ch)
Subtitles:
Russian
Ukrainian

MediaInfo

Общее
Полное имя : G:\Новинки 2012\Ne.bojsja.temnoty.2010.DVD9\VIDEO_TS\VTS_09_1.VOB
Формат : MPEG-PS
Размер файла : 1024 Мбайт
Продолжительность : 14 м.
Общий поток : 9681 Кбит/сек
Видео
Идентификатор : 224 (0xE0)
Формат : MPEG Video
Версия формата : Version 2
Профиль формата : [email protected]
Параметр BVOP формата : Да
Параметр матрицы формата : Выборочная
Продолжительность : 14 м.
Битрейт : 7400 Кбит/сек
Ширина : 720 пикселей
Высота : 576 пикселей
Соотношение сторон : 16:9
Частота кадров : 25,000 кадров/сек
Стандарт вещания : PAL
Цветовое пространство : YUV
Субдискретизация насыщенности : 4:2:0
Битовая глубина : 8 бит
Тип развёртки : Чересстрочная
Порядок развёртки : Верхнее поле первое
Метод сжатия : С потерями
Бит/(Пиксели*Кадры) : 0.714
Размер потока : 782 Мбайт (76%)
Аудио #1
Идентификатор : 189 (0xBD)-128 (0x80)
Формат : AC-3
Формат/Информация : Audio Coding 3
Расширение режима : CM (complete main)
Режим смешивания : DVD-Video
Продолжительность : 14 м.
Вид битрейта : Постоянный
Битрейт : 448 Кбит/сек
Каналы : 6 каналов
Расположение каналов : Front: L C R, Side: L R, LFE
Частота : 48,0 КГц
Битовая глубина : 16 бит
Метод сжатия : С потерями
Размер потока : 47,4 Мбайт (5%)
Аудио #2
Идентификатор : 189 (0xBD)-129 (0x81)
Формат : AC-3
Формат/Информация : Audio Coding 3
Расширение режима : CM (complete main)
Режим смешивания : DVD-Video
Продолжительность : 14 м.
Вид битрейта : Постоянный
Битрейт : 448 Кбит/сек
Каналы : 6 каналов
Расположение каналов : Front: L C R, Side: L R, LFE
Частота : 48,0 КГц
Битовая глубина : 16 бит
Метод сжатия : С потерями
Размер потока : 47,4 Мбайт (5%)
Аудио #3
Идентификатор : 189 (0xBD)-131 (0x83)
Формат : AC-3
Формат/Информация : Audio Coding 3
Расширение режима : CM (complete main)
Режим смешивания : DVD-Video
Продолжительность : 14 м.
Вид битрейта : Постоянный
Битрейт : 448 Кбит/сек
Каналы : 6 каналов
Расположение каналов : Front: L C R, Side: L R, LFE
Частота : 48,0 КГц
Битовая глубина : 16 бит
Метод сжатия : С потерями
Размер потока : 47,4 Мбайт (5%)
Аудио #4
Идентификатор : 189 (0xBD)-138 (0x8A)
Формат : DTS
Формат/Информация : Digital Theater Systems
Режим смешивания : DVD-Video
Продолжительность : 14 м.
Вид битрейта : Постоянный
Битрейт : 755 Кбит/сек
Каналы : 6 каналов
Расположение каналов : Front: L C R, Side: L R, LFE
Частота : 48,0 КГц
Битовая глубина : 24 бит
Метод сжатия : С потерями
Размер потока : 79,8 Мбайт (8%)
Текст #1
Идентификатор : 189 (0xBD)-32 (0x20)
Формат : RLE
Формат/Информация : Run-length encoding
Режим смешивания : DVD-Video
Текст #2
Идентификатор : 189 (0xBD)-33 (0x21)
Формат : RLE
Формат/Информация : Run-length encoding
Режим смешивания : DVD-Video

Скриншоты меню

       

Скриншоты фильма

               

Скриншоты доп. материалов

           
-
-
Other forum [Profile] [PM]

Haron

Gender:

Longevity: 9 years 5 months

Posts: 85

Нарушений: 1

Location: Москвэ

Торрент-статистика

Post 03-May-2012 22:40 (after 3 months 2 days)

[Quote]

Семь гигов? Че так много-то...

_________________
Other forum [Profile] [PM]
Display posts from previous:    
Reply to topic

The time now is: Today 22:08

All times are GMT + 3 Hours



You cannot post new topics in this forum
You cannot reply to topics in this forum
You cannot edit your posts in this forum
You cannot delete your posts in this forum
You cannot vote in polls in this forum
You cannot attach files in this forum
You cannot download files in this forum