Today is a free download without charge Download

Искупление (Александр Прошкин) [2012, Россия, Драма, военный, история, экранизация, HDTV 1080i]

Reply to topic
 
Author
Message

Omen ®

Longevity: 8 years 10 months

Posts: 181086

Торрент-статистика

Post 04-Nov-2014 02:04

[Quote]

Искупление
Год выпуска: 2012
Производство: Драма, военный, история, экранизация
Жанр: Мелодрама
Продолжительность: ~02:00:21
Субтитры: нет
Режиссёр: Александр Прошкин
В ролях: Виктория Романенко, Риналь Мухаметов, Андрей Панин, Татьяна Яковенко, Виктор Сухоруков, Сергей Дрейден, Екатерина Волкова, Наталья Морозова, Алишер Умаров, Николай Бутенин
Описание: Действие фильма разворачивается в канун первого послевоенного Нового 1946 года в разоренном южном городе, где еще совсем недавно жили в мире и согласии представители различных национальностей. Молох войны разделил их на жертв и палачей, породил бесконечное сострадание и нечеловеческую низость. Впрочем, и послевоенная жизнь в разрухе, голоде и нищете обернулась тяжким испытанием. Посудомойка, вдова героя-летчика, ворует из милицейской столовой, чтоб прокормить шестнадцатилетнюю дочь и двух доходяг, которых, по доброте душевной, приютила в своем убогом жилище. Возмущенная дочь доносит на мать и та отправляется искупать грех в тюрьму... Экранизация по произведению: Фридрих Горенштейн.

Качество: HDTV 1080i
Контейнер: TS
Видео: MPEG4 Video (H264) 1920x1080, ~ 10,4 Мбит/сек, 25.00fps 0.201 bit/pixel
Аудио: AC-3, 6 ch, 48,0 КГц, 448 Кбит/с
Сторонней рекламы нет!

MediaInfo

ОбщееИдентификатор : 1 (0x1)Полное имя : F:\Фильмы торренты\Iskuplenie.2012.HDTV.(1080i).MediaClub.tsФормат : MPEG-TSРазмер файла : 9,62 ГбайтПродолжительность : 2 ч. 0 м.Режим общего битрейта : ПеременныйОбщий поток : 11,4 Мбит/сек
ВидеоИдентификатор : 69 (0x45)Идентификатор меню : 1 (0x1)Формат : AVCФормат/Информация : Advanced Video CodecПрофиль формата : [email protected]Параметр CABAC формата : ДаПараметр ReFrames формата : 3 кадраИдентификатор кодека : 27Продолжительность : 2 ч. 0 м.Битрейт : 10,4 Мбит/секШирина : 1920 пикселейВысота : 1080 пикселейСоотношение сторон : 16:9Частота кадров : 25,000 кадров/секСтандарт вещания : ComponentЦветовое пространство : YUVСубдискретизация насыщенности : 4:2:0Битовая глубина : 8 битТип развёртки : ЧересстрочнаяПорядок развёртки : Верхнее поле первоеБит/(Пиксели*Кадры) : 0.201Размер потока : 8,77 Гбайт (91%)Основные цвета : BT.709Характеристики трансфера : BT.709Коэффициенты матрицы : BT.709
АудиоИдентификатор : 68 (0x44)Идентификатор меню : 1 (0x1)Формат : AC-3Формат/Информация : Audio Coding 3Расширение режима : CM (complete main)Параметр Endianness формата : BigИдентификатор кодека : 129Продолжительность : 2 ч. 0 м.Вид битрейта : ПостоянныйБитрейт : 448 Кбит/секКаналы : 6 каналовРасположение каналов : Front: L C R, Side: L R, LFEЧастота : 48,0 КГцБитовая глубина : 16 битМетод сжатия : С потерямиРазмер потока : 386 Мбайт (4%)Язык : Russian
Раздача группы:
Отдельное спасибо nikolspup за предоставление материала.

Скриншот c названием фильма

Скриншоты

Other forum [Profile] [PM]
Display posts from previous:    
Reply to topic

The time now is: Today 15:07

All times are GMT + 3 Hours



You cannot post new topics in this forum
You cannot reply to topics in this forum
You cannot edit your posts in this forum
You cannot delete your posts in this forum
You cannot vote in polls in this forum
You cannot attach files in this forum
You cannot download files in this forum