Today is a free download without charge Download

Приходите завтра (Евгений Ташков) [1963, СССР, мелодрама, комедия, HDTV 1080i] [Цветная версия в HD] + Sub Rus + Original Rus

Reply to topic
 
Author
Message

Omen ®

Longevity: 8 years 10 months

Posts: 181086

Торрент-статистика

Post 02-Nov-2014 23:00

[Quote]

Приходите завтра (Цветная версия)
Страна: СССР
Студия: Одесская киностудия художественных фильмов
Жанр: мелодрама, комедия
Год выпуска: 1963
Продолжительность: 01:32:32
Перевод: Не требуется
Cубтитры: русские
Оригинальная аудиодорожка: русский
Режиссер: Евгений Ташков
В ролях: Анатолий Папанов, Екатерина Савинова, Борис Бибиков, Антонина Максимова, Юрий Горобец, Надежда Животова, Александр Ширвиндт, Юрий Белов, Александра Денисова, Борис Коковкин
Описание: Деревенская девушка Фрося Бурлакова, обладающая редким голосом с огромным диапазоном, приезжает в Москву из далекого сибирского хутора "поступать в артистки". Остановившись у едва знакомого скульптора, она отправляется в консерваторию. Но, увы, поздно! Прием уже закончен. Однако, Фрося натура целеустремленная. Проведя в консерватории не один день, она все же добивается, чтобы ее прослушал известный профессор
Доп. информация:
Оператор: Радомир Василевский
Композитор: Андрей Эшпай
Сэмпл: http://multi-up.com/1010509
Тип релиза: HDTV 1080i
Контейнер: TS
Видео: AVC, 1920х1080, 16:9, 7315 Кбит/сек, 25 fps
Аудио: MPEG Audio, 224 Кбит/сек, 48 КГц, 2 канала
Формат субтитров: Teletext

MediaInfo

Общее
Идентификатор : 16 (0x10)
Полное имя : Come back tomorrow_HD.ts
Формат : MPEG-TS
Размер файла : 5,39 Гбайт
Продолжительность : 1 ч. 32 м.
Режим общего битрейта : Переменный
Общий поток : 8341 Кбит/сек
Видео
Идентификатор : 1902 (0x76E)
Идентификатор меню : 92 (0x5C)
Формат : AVC
Формат/Информация : Advanced Video Codec
Профиль формата : [email protected]
Параметр CABAC формата : Да
Параметр ReFrames формата : 3 кадра
Параметр GOP формата : M=4, N=32
Идентификатор кодека : 27
Продолжительность : 1 ч. 32 м.
Битрейт : 7315 Кбит/сек
Ширина : 1920 пикселей
Высота : 1080 пикселей
Соотношение сторон : 16:9
Частота кадров : 25,000 кадров/сек
Стандарт вещания : PAL
Цветовое пространство : YUV
Субдискретизация насыщенности : 4:2:0
Битовая глубина : 8 бит
Тип развёртки : Чересстрочная
Порядок развёртки : Верхнее поле первое
Бит/(Пиксели*Кадры) : 0.141
Размер потока : 4,73 Гбайт (88%)
Основные цвета : BT.709
Характеристики трансфера : BT.709
Коэффициенты матрицы : BT.709
Аудио #1
Идентификатор : 2902 (0xB56)
Идентификатор меню : 92 (0x5C)
Формат : MPEG Audio
Версия формата : Version 1
Профиль формата : Layer 2
Идентификатор кодека : 4
Продолжительность : 1 ч. 32 м.
Вид битрейта : Постоянный
Битрейт : 224 Кбит/сек
Каналы : 2 канала
Частота : 48,0 КГц
Метод сжатия : С потерями
Задержка видео : 112 мс.
Размер потока : 148 Мбайт (3%)
Язык : std
Язык, дополнительно : Clean effects
Текст
Идентификатор : 33 (0x21)-100
Идентификатор меню : 92 (0x5C)
Формат : Teletext
Меню
Идентификатор : 902 (0x386)
Идентификатор меню : 92 (0x5C)
Продолжительность : 1 ч. 32 м.
Список : 1902 (0x76E) (AVC) / 2902 (0xB56) (MPEG Audio, std) / 3902 (0xF3E) (AC-3, std) / 33 (0x21) ()
Язык : / std / std

Скриншоты

Other forum [Profile] [PM]

Dracula

Longevity: 7 years 11 months

Posts: 11006

Торрент-статистика

Post 03-Nov-2014 08:29 (after 9 hours)

Топик был перенесен из форума Зарубежное кино (HD Video) в форум Наше кино (HD Video)


Геннадич
 
Display posts from previous:    
Reply to topic

The time now is: Today 18:57

All times are GMT + 3 Hours



You cannot post new topics in this forum
You cannot reply to topics in this forum
You cannot edit your posts in this forum
You cannot delete your posts in this forum
You cannot vote in polls in this forum
You cannot attach files in this forum
You cannot download files in this forum