Today is a free download without charge Download

(Rock, blues- rock, folk rock, rock 'n' roll)Чиж & Со - "Перекресток" (1995) VHSRip

Reply to topic
 
Author
Message

Varius ®

Gender:

Longevity: 9 years 6 months

Posts: 2410

Location: Hell

Торрент-статистика

Post 29-Jan-2012 16:18

[Quote]

Чиж & Со - "Перекресток" (1995) VHSRip- Русское название: Чиж & Со - "Перекресток"
Год выпуска: 1995
Жанр: Rock, blues- rock, folk rock, rock 'n' roll
Краткое описание:
Видеоверсия концерта в Ленинграде 29-30 марта 1995 года
Продолжительность: 00:34:33
Видеокодек: Xvid
Битрейт видео: ~1024 kbps
Размер кадра: 576х480
Качество видео: VHSRip
Аудиокодек: MP3, 2ch
Битрейт аудио: 128 kbps

Треклист

1. Ты был в этом городе первым
2. Houchie Coochie Man
3. Кругом Тайга...
4. Дополнительный 38-ой...
5. Я не такой
6. Ветер вырывает из рук последние деньги
7. Sha-la-la
8. Такие дела

MediaInfo

Общее
Полное имя : G:\Video\MusicVideo\Chizh&Co - Cross (1995).avi
Формат : AVI
Формат/Информация : Audio Video Interleave
Размер файла : 286 Мбайт
Продолжительность : 34 м.
Режим общего битрейта : Переменный
Общий поток : 1157 Кбит/сек
Программа кодирования : MEncoder r33883
Библиотека кодирования : MPlayer
Видео
Идентификатор : 0
Формат : MPEG-4 Visual
Профиль формата : [email protected]
Параметр BVOP формата : Нет
Параметр QPel формата : Нет
Параметр GMC формата : Без точки перехода
Параметр матрицы формата : Default (H.263)
Идентификатор кодека : XVID
Идентификатор кодека/Подсказка : XviD
Продолжительность : 34 м.
Битрейт : 1024 Кбит/сек
Ширина : 576 пикселей
Высота : 480 пикселей
Соотношение сторон : 1,200
Частота кадров : 25,000 кадров/сек
Цветовое пространство : YUV
Субдискретизация насыщенности : 4:2:0
Битовая глубина : 8 бит
Тип развёртки : Прогрессивная
Метод сжатия : С потерями
Бит/(Пиксели*Кадры) : 0.148
Размер потока : 253 Мбайт (88%)
Библиотека кодирования : XviD 63
Аудио
Идентификатор : 1
Формат : MPEG Audio
Версия формата : Version 1
Профиль формата : Layer 3
Режим : Joint stereo
Расширение режима : MS Stereo
Идентификатор кодека : 55
Идентификатор кодека/Подсказка : MP3
Продолжительность : 34 м.
Вид битрейта : Переменный
Битрейт : 121 Кбит/сек
Каналы : 2 канала
Частота : 44,1 КГц
Метод сжатия : С потерями
Размер потока : 29,9 Мбайт (10%)
Выравнивание : Соединение по промежуткам
Продолжительность промежутка : 26 мс. (0,65 видеокадр)
Время предзагрузки промежутка : 388 мс.
Скрины:
       

_________________

Создавая "Новую папку", не считайте себя Создателем - это право Вам дано Админом




Last edited by Varius on 2012-01-29 17:53; edited 1 time in total
Other forum [Profile] [PM]
Display posts from previous:    
Reply to topic

The time now is: Today 06:34

All times are GMT + 3 Hours



You cannot post new topics in this forum
You cannot reply to topics in this forum
You cannot edit your posts in this forum
You cannot delete your posts in this forum
You cannot vote in polls in this forum
You cannot attach files in this forum
You cannot download files in this forum