Today is a free download without charge Download

Часы / The Hours (Стивен Долдри) [2002, США, Великобритания, драма,, BDRip 720p] Dub Sub Eng + Original Eng

Reply to topic
 
Author
Message

Delia ®

Gender:

Longevity: 11 years

Posts: 1821

Торрент-статистика

Post 29-Jan-2012 11:38

[Quote]

Часы The Hours Страна: США, Великобритания
Студия: Miramax Films
Жанр: драма,
Год выпуска: 2002
Продолжительность: 01:54:22
Перевод: Профессиональный (дублированный)
Cубтитры: английские
Оригинальная аудиодорожка: английский
Режиссер: Стивен Долдри
В ролях: Николь Кидман, Джулианна Мур, Мэрил Стрип, Эд Харрис, Стивен Диллэйн, Миранда Ричардсон, Джордж Лофтус, Чарли Рэмм, Софи Уайберд, Линдси Маршал, Линда Бэссет
Описание: В фильме описывается жизнь и рабочие будни Вирджинии Вульф через рассказ истории трех женщин: Вульф, которая показана в период написания ею «Миссис Дэллоувэй», когда ее терзали мысли о самоубийстве; Лары Браун, молодой жены и матери, которая задыхается в рамках своей опрятной жизни среди Лос-Анджелеса 1951 года; и Клариссы Вон, которая устраивает вечеринку в Нью-Йорке наших дней для своего близкого друга Ричарда, умирающего от СПИДа.

Тип релиза: BDRip 720p
Контейнер: MKV
Видео: AVC 1280*694 (16:9), 23,976fps, ~ 5750 kbps avg , [email protected]
Аудио: DTS Russian 768 kbps 5.1 / 48 kHz / 768 kbps / 16-bit (DUB)
Аудио 2: Dolby Digital Audio Russian 192 kbps 2.0 / 48 kHz / 192 kbps / DN -4dB / Dolby Surround (MVO #1)
Аудио 3: Dolby Digital Audio Russian 192 kbps 2.0 / 48 kHz / 192 kbps / DN -4dB / Dolby Surround (MVO #2)
Аудио 4: English, 755 Кбит/сек, 48,0 КГц, 24 бит, 6 каналов, DTS

MediaInfo

Код:
Общее
Уникальный идентификатор         : 187569193462844163923840736775021065326 (0x8D1C833BF260CA2AA882393B7A28F46E)
Полное имя                       : E:\торрент\The Hours(2002) bdrip 720p.mkv
Формат                           : Matroska
Версия формата                   : Version 2
Размер файла                     : 6,13 Гбайт
Продолжительность                : 1 ч. 54 м.
Общий поток                      : 7668 Кбит/сек
Дата кодирования                 : UTC 2012-01-27 14:21:06
Программа кодирования            : mkvmerge v5.2.1 ('A Far Off Place') built on Jan  2 2012 23:21:10
Библиотека кодирования           : libebml v1.2.3 + libmatroska v1.3.0
Видео
Идентификатор                    : 1
Формат                           : AVC
Формат/Информация                : Advanced Video Codec
Профиль формата                  : [email protected]
Параметр CABAC формата           : Да
Параметр ReFrames формата        : 9 кадров
Идентификатор кодека             : V_MPEG4/ISO/AVC
Продолжительность                : 1 ч. 54 м.
Битрейт                          : 5750 Кбит/сек
Ширина                           : 1280 пикселей
Высота                           : 694 пикселя
Соотношение сторон               : 16:9
Частота кадров                   : 24,000 кадра/сек
Цветовое пространство            : YUV
Субдискретизация насыщенности    : 4:2:0
Битовая глубина                  : 8 бит
Тип развёртки                    : Прогрессивная
Бит/(Пиксели*Кадры)              : 0.270
Размер потока                    : 4,49 Гбайт (73%)
Заголовок                        : Delia
Библиотека кодирования           : x264 core 120 r2146 bcd41db
Настройки программы              : cabac=1 / ref=9 / deblock=1:-3:-4 / analyse=0x3:0x113 / me=esa / subme=9 / psy=1 / psy_rd=1.00:0.25 / mixed_ref=1 / me_range=32 / chroma_me=1 / trellis=2 / 8x8dct=1 / cqm=0 / deadzone=21,11 / fast_pskip=0 / chroma_qp_offset=-4 / threads=6 / sliced_threads=0 / nr=0 / decimate=1 / interlaced=0 / bluray_compat=0 / constrained_intra=0 / bframes=8 / b_pyramid=2 / b_adapt=2 / b_bias=0 / direct=3 / weightb=1 / open_gop=0 / weightp=2 / keyint=235 / keyint_min=22 / scenecut=40 / intra_refresh=0 / rc_lookahead=60 / rc=2pass / mbtree=1 / bitrate=5750 / ratetol=1.0 / qcomp=0.70 / qpmin=0 / qpmax=69 / qpstep=4 / cplxblur=20.0 / qblur=0.5 / vbv_maxrate=55000 / vbv_bufsize=65000 / nal_hrd=none / ip_ratio=1.40 / aq=1:0.80
Язык                             : English
Аудио #1
Идентификатор                    : 2
Формат                           : DTS
Формат/Информация                : Digital Theater Systems
Идентификатор кодека             : A_DTS
Продолжительность                : 1 ч. 54 м.
Вид битрейта                     : Постоянный
Битрейт                          : 755 Кбит/сек
Каналы                           : 6 каналов
Расположение каналов             : Front: L C R, Side: L R, LFE
Частота                          : 48,0 КГц
Битовая глубина                  : 16 бит
Метод сжатия                     : С потерями
Размер потока                    : 617 Мбайт (10%)
Язык                             : Russian
Аудио #2
Идентификатор                    : 3
Формат                           : AC-3
Формат/Информация                : Audio Coding 3
Профиль формата                  : Dolby Digital
Расширение режима                : CM (complete main)
Идентификатор кодека             : A_AC3
Продолжительность                : 1 ч. 54 м.
Вид битрейта                     : Постоянный
Битрейт                          : 192 Кбит/сек
Каналы                           : 2 канала
Расположение каналов             : Front: L R
Частота                          : 48,0 КГц
Битовая глубина                  : 16 бит
Метод сжатия                     : С потерями
Размер потока                    : 157 Мбайт (3%)
Язык                             : Russian
Аудио #3
Идентификатор                    : 4
Формат                           : AC-3
Формат/Информация                : Audio Coding 3
Профиль формата                  : Dolby Digital
Расширение режима                : CM (complete main)
Идентификатор кодека             : A_AC3
Продолжительность                : 1 ч. 54 м.
Вид битрейта                     : Постоянный
Битрейт                          : 192 Кбит/сек
Каналы                           : 2 канала
Расположение каналов             : Front: L R
Частота                          : 48,0 КГц
Битовая глубина                  : 16 бит
Метод сжатия                     : С потерями
Размер потока                    : 157 Мбайт (3%)
Язык                             : Russian
Аудио #4
Идентификатор                    : 5
Формат                           : DTS
Формат/Информация                : Digital Theater Systems
Идентификатор кодека             : A_DTS
Продолжительность                : 1 ч. 54 м.
Вид битрейта                     : Постоянный
Битрейт                          : 755 Кбит/сек
Каналы                           : 6 каналов
Расположение каналов             : Front: L C R, Side: L R, LFE
Частота                          : 48,0 КГц
Битовая глубина                  : 24 бит
Метод сжатия                     : С потерями
Размер потока                    : 617 Мбайт (10%)
Язык                             : English
Текст
Идентификатор                    : 6
Формат                           : UTF-8
Идентификатор кодека             : S_TEXT/UTF8
Идентификатор кодека/Информация  : UTF-8 Plain Text
Язык                             : Russian
Меню
00:00:00.000                     : en:Chapter 01
00:03:36.708                     : en:Chapter 02
00:08:51.541                     : en:Chapter 03
00:11:35.375                     : en:Chapter 04
00:14:11.250                     : en:Chapter 05
00:17:28.708                     : en:Chapter 06
00:27:37.166                     : en:Chapter 07
00:31:59.458                     : en:Chapter 08
00:35:35.875                     : en:Chapter 09
00:43:26.458                     : en:Chapter 10
00:50:08.708                     : en:Chapter 11
00:59:17.375                     : en:Chapter 12
01:12:08.583                     : en:Chapter 13
01:16:59.708                     : en:Chapter 14
01:25:53.250                     : en:Chapter 15
01:39:39.208                     : en:Chapter 16
01:47:56.666                     : en:Chapter 17

Скриншоты

       

_________________
Человек – это канат, натянутый между животным и сверхчеловеком, – канат над пропастью.
В человеке ценно то, что он мост, а не цель. Фридрих Ницше
Other forum [Profile] [PM]
Display posts from previous:    
Reply to topic

The time now is: Today 01:42

All times are GMT + 3 Hours



You cannot post new topics in this forum
You cannot reply to topics in this forum
You cannot edit your posts in this forum
You cannot delete your posts in this forum
You cannot vote in polls in this forum
You cannot attach files in this forum
You cannot download files in this forum