Today is a free download without charge Download

Сёстры (2001) DVDRip

Reply to topic
 
Author
Message

Varius ®

Gender:

Longevity: 10 years

Posts: 2428

Location: Hell

Торрент-статистика

Post 29-Jan-2012 08:58

[Quote]

Сёстры (2001) DVDRip- Русское название: Сёстры
Год выпуска: 2001
Жанр: Боевик, Криминал
Описание фильма:
Альберт Муртазаев, авторитетный вор и бандит, выходит на свободу из тюрьмы. На воле его ждут жена и две дочери. Дочери — единоутробные сёстры Света и Дина, которые в силу различий в характерах и возрасте (Динаре 8 лет, а Свете 13) не могут никак найти общий язык. Вместо радушной встречи от бывших подельников и соратников, Муртазаев получает от них обвинение. После ареста у него изъяли «общак», потерю которого он теперь должен возместить. Бандиты идут на крайние меры и обещают похитить дочь Муртазаева Дину, если условия не будут выполнены и он не вернёт денег. Однако у него на этот счёт другой взгляд. Не имея таких средств Альберт прячет дочерей на чужой квартире, а сам отправляется на диалог с братками.
Убежище оказалось ненадёжным, и сёстры, не предупредив родителей, спешно скрываются от нагрянувших на квартиру бандитов. Света теперь как старшая сестра отвечает за Дину, общество которой ей очень не симпатично. Она занимается в секции стрельбы, готовится стать в будущем телохранителем, а Дина всего лишь маленькая девочка, даже не подозревающая о делах своего отца.
С десятью рублями в кармане, отвергнутые родственниками матери, боящимися расправы от врагов Муртазаева, девочки оказываются в глуши без крыши над головой. У них нет ничего, кроме желания вернуться домой живыми и любви, которой они прониклись друг к другу, преодолев все испытания на своём пути. Встаёт на место всё в голове маленькой Динары, смирившейся с «профессией» своего отца.
В конце концов, проливается кровь милиционера, защитившего девочек от похищения, его чудного знакомого и ещё многих… Муртазаев же вовремя выходит на след дочерей и находит их. Динара вновь обретает отца, а Света знакомится со случайно встретившимся ей «блатным». Мастерство юной снайперши в тире поразило его, и он пообещал взять Свету в мир своей нелёгкой профессии телохранителем. Семья Муртазаевых, оторвавшись на время от преследования, уезжает в Австрию на постоянное жительство. Сёстрам, полюбившим друг друга, более не суждено будет увидеться.
Режиссер: Сергей Бодров (мл.)
Актеры: Оксана Акиньшина, Екатерина Горина, Роман Агеев, Татьяна Колганова, Дмитрий Орлов (III), Кирилл Пирогов, Александр Баширов, Андрей Краско
Продолжительность: 01:20:05

Видеокодек: Xvid
Битрейт видео: ~2144 Кбит/сек
Размер кадра: 704 х 384
Качество видео: DVDRip
Аудиокодек: AC3 5.1
Битрейт аудио: 448 Кбит/сек

MediaInfo

Формат : AVI
Формат/Информация : Audio Video Interleave
Размер файла : 1,46 Гбайт
Продолжительность : 1 ч. 20 м.
Общий поток : 2602 Кбит/сек
Программа кодирования : VirtualDubModRus 1.5.10.2 (build 2542/release)
Библиотека кодирования : VirtualDubMod build 2542/release
Видео
Идентификатор : 0
Формат : MPEG-4 Visual
Профиль формата : Advanced [email protected]
Параметр BVOP формата : Да
Параметр QPel формата : Нет
Параметр GMC формата : Без точки перехода
Параметр матрицы формата : Выборочная
Идентификатор кодека : XVID
Идентификатор кодека/Подсказка : XviD
Продолжительность : 1 ч. 20 м.
Битрейт : 2144 Кбит/сек
Ширина : 704 пикс.
Высота : 384 пикс.
Соотношение сторон : 16:9
Частота кадров : 25,000 кадр/сек
Цветовое пространство : YUV
Подвыборка цветности : 4:2:0
Битовая глубина : 8 бит
Тип развёртки : Прогрессивная
Метод сжатия : С потерями
Бит/(Пиксели*Кадры) : 0.317
Размер потока : 1,20 Гбайт (82%)
Библиотека кодирования : XviD 1.2.1 (UTC 2008-12-04)
Аудио
Идентификатор : 1
Формат : AC-3
Формат/Информация : Audio Coding 3
Расширение режима : CM (complete main)
Идентификатор кодека : 2000
Продолжительность : 1 ч. 20 м.
Вид битрейта : Постоянный
Битрейт : 448 Кбит/сек
Канал(ы) : 6 канала(ов)
Расположение каналов : Front: L C R, Side: L R, LFE
Частота : 48,0 КГц
Битовая глубина : 16 бит
Метод сжатия : С потерями
Размер потока : 257 Мбайт (17%)
Выравнивание : Разделение по промежуткам
Продолжительность промежутка : 40 мс. (1,00 видеокадр)
Время предзагрузки промежутка : 500 ms
Скриншоты:
       
Время раздачи: 24/7 - круглосуточно

_________________

Создавая "Новую папку", не считайте себя Создателем - это право Вам дано Админом


Other forum [Profile] [PM]
Display posts from previous:    
Reply to topic

The time now is: Today 07:20

All times are GMT + 3 Hours



You cannot post new topics in this forum
You cannot reply to topics in this forum
You cannot edit your posts in this forum
You cannot delete your posts in this forum
You cannot vote in polls in this forum
You cannot attach files in this forum
You cannot download files in this forum