Today is a free download without charge Download

Снежная королева (Владлен Барбэ, Максим Свешников) [2012, фэнтези, приключения, семейный, BDRip-AVC]

Reply to topic
 
Author
Message

Omen ®

Longevity: 7 years 11 months

Posts: 181087

Торрент-статистика

Post 24-Oct-2014 05:21

[Quote]

Снежная королева- Страна: Россия
Жанр: фэнтези, приключения, семейный
Продолжительность: 01:17:21
Год выпуска: 2012
Субтитры: нет
Режиссёр: Владлен Барбэ, Максим Свешников
Роли озвучивали: Иван Охлобыстин, Нюша Шурочкина, Анна Ардова, Рамиля Искандер, Дмитрий Нагиев, Лиза Арзамасова, Галина Тюнина, Юрий Стоянов, Людмила Артемьева, Михаил Тихонов-ОписаниеВ стремлении сотворить Новый мир — холодный и практичный, где четкость линий призвана заменить эмоции, а северный ветер должен остудить людские души, Снежная Королева избавляется от всех представителей творческих профессий. Маленькой и смелой Герде, отправившейся в опасное путешествие, чтобы спасти своего брата Кая, предстоит столкнуться с этим холодным миром Снежной Королевы. Преодолевая все сложности и преграды на пути к своей цели, Герда не только обретает семью, но и веру в себя, находит поддержку новых друзей.-Семпл

IMDb: 5.10 (635)
Качество: BDRip-AVC Blu-ray disc 1080p
Формат: MKV
Видео: AVC 3091 Kbps 1024 x 576 (1.778) 24.000 fps
Аудио: AC-3 448 Kbps 6 channels, 48.0 KHz

MI | Log

Log

x264 [info]: frame I:923 Avg QP:14.66 size:118962
x264 [info]: frame P:28744 Avg QP:17.08 size: 30200
x264 [info]: frame B:79789 Avg QP:19.84 size: 10731
x264 [info]: consecutive B-frames: 4.2% 4.6% 17.1% 28.2% 13.2% 27.8% 2.0% 1.0% 0.5% 0.2% 0.1% 0.2% 0.8%
x264 [info]: mb I I16..4: 6.6% 60.3% 33.1%
x264 [info]: mb P I16..4: 1.0% 15.4% 2.9% P16..4: 21.5% 23.4% 13.1% 3.6% 0.7% skip:18.5%
x264 [info]: mb B I16..4: 0.3% 3.8% 0.5% B16..8: 24.9% 18.1% 4.1% direct: 5.0% skip:43.2% L0:37.9% L1:43.6% BI:18.4%
x264 [info]: 8x8 transform intra:78.8% inter:50.9%
x264 [info]: coded y,uvDC,uvAC intra: 86.6% 87.9% 69.5% inter: 20.4% 22.1% 9.2%
x264 [info]: i16 v,h,dc,p: 17% 18% 6% 59%
x264 [info]: i8 v,h,dc,ddl,ddr,vr,hd,vl,hu: 10% 12% 8% 9% 10% 10% 12% 12% 17%
x264 [info]: i4 v,h,dc,ddl,ddr,vr,hd,vl,hu: 11% 12% 7% 8% 13% 12% 14% 10% 15%
x264 [info]: i8c dc,h,v,p: 36% 26% 18% 20%
x264 [info]: Weighted P-Frames: Y:4.3% UV:3.5%
x264 [info]: ref P L0: 59.1% 13.1% 11.3% 4.5% 2.9% 2.6% 1.7% 1.4% 0.9% 1.0% 0.7% 0.8% 0.2% 0.0%
x264 [info]: ref B L0: 80.3% 8.1% 4.1% 1.9% 1.5% 1.0% 1.0% 0.7% 0.7% 0.4% 0.2%
x264 [info]: ref B L1: 93.0% 7.0%
x264 [info]: kb/s:3217.31
x264 [total]: encoded 109456 frames, 8.88 fps, 3217.31 kb/s, duration 3:25:33.03
Format : MatroskaFormat version : Version 4 / Version 2File size : 1.95 GiBDuration : 1h 17mnOverall bit rate : 3 611 KbpsEncoded date : UTC 2014-10-23 14:50:41Writing application : mkvmerge v6.7.0 ('Back to the Ground') 32bit built on Jan 8 2014 15:03:17Writing library : libebml v1.3.0 + libmatroska v1.4.1
VideoID : 1Format : AVCFormat/Info : Advanced Video CodecFormat profile : [email protected] settings, CABAC : YesFormat settings, ReFrames : 12 framesCodec ID : V_MPEG4/ISO/AVCDuration : 1h 17mnBit rate : 3 091 KbpsWidth : 1 024 pixelsHeight : 576 pixelsDisplay aspect ratio : 16:9Frame rate mode : ConstantFrame rate : 24.000 fpsColor space : YUVChroma subsampling : 4:2:0Bit depth : 8 bitsScan type : ProgressiveBits/(Pixel*Frame) : 0.218Stream size : 1.67 GiB (86%)Writing library : x264 core 142 r2453kMod ea0ca51Encoding settings : cabac=1 / ref=12 / deblock=1:-2:-2 / analyse=0x3:0x133 / me=umh / subme=11 / psy=1 / fade_compensate=0.00 / psy_rd=1.00:0.05 / mixed_ref=1 / me_range=32 / chroma_me=1 / trellis=2 / 8x8dct=1 / cqm=0 / deadzone=21,11 / fast_pskip=0 / chroma_qp_offset=-3 / threads=12 / lookahead_threads=3 / sliced_threads=0 / nr=0 / decimate=1 / interlaced=0 / bluray_compat=0 / constrained_intra=0 / fgo=0 / bframes=12 / b_pyramid=2 / b_adapt=2 / b_bias=0 / direct=1 / weightb=1 / open_gop=0 / weightp=2 / keyint=250 / keyint_min=23 / scenecut=40 / intra_refresh=0 / rc_lookahead=60 / rc=crf / mbtree=0 / crf=17.5000 / qcomp=0.60 / qpmin=0 / qpmax=69 / qpstep=4 / vbv_maxrate=25000 / vbv_bufsize=50000 / crf_max=0.0 / nal_hrd=none / filler=0 / ip_ratio=1.40 / pb_ratio=1.30 / aq=3:0.90Language : RussianDefault : YesForced : No
AudioID : 2Format : AC-3Format/Info : Audio Coding 3Mode extension : CM (complete main)Format settings, Endianness : BigCodec ID : A_AC3Duration : 1h 17mnBit rate mode : ConstantBit rate : 448 KbpsChannel(s) : 6 channelsChannel positions : Front: L C R, Side: L R, LFESampling rate : 48.0 KHzBit depth : 16 bitsCompression mode : LossyStream size : 248 MiB (12%)Title : OriginalLanguage : RussianDefault : YesForced : No
Menu00:00:00.000 : en:00:00:00.00000:09:25.292 : en:00:09:25.29200:22:49.625 : en:00:22:49.62500:31:46.167 : en:00:31:46.16700:46:44.833 : en:00:46:44.83301:00:24.333 : en:01:00:24.333

Скриншоты | Rip vs Source

Source
Other forum [Profile] [PM]
Display posts from previous:    
Reply to topic

The time now is: Today 03:58

All times are GMT + 3 Hours



You cannot post new topics in this forum
You cannot reply to topics in this forum
You cannot edit your posts in this forum
You cannot delete your posts in this forum
You cannot vote in polls in this forum
You cannot attach files in this forum
You cannot download files in this forum