Today is a free download without charge Download

Мой парень - ангел (Вера Сторожева) [2011 г., фэнтези, мелодрама, комедия, приключения, BDRip1080p]

Reply to topic
 
Author
Message

sassad ®

Gender:

Longevity: 10 years

Posts: 1214

Location: Галич

Торрент-статистика

Post 27-Jan-2012 15:58

[Quote]

Мой парень - ангел-
Год выпуска: 2011
Страна: Россия
Жанр: фэнтези, мелодрама, комедия, приключения
Продолжительность: 97 мин. / 01:37
Перевод: Не требуется-Режиссер: Вера Сторожева
Продюссер: Геворг Нерсисян, Армен Манасарян
Сценарий: Наталья Назарова
Бюджет: $2 276 674
Премьера в мире: 5 января 2012

В ролях: Артур Смольянинов, Анна Старшенбаум, Сергей Пускепалис, Екатерина Вуличенко, Иван Охлобыстин, Гоша Куценко, Никита Ефремов, Иван Макаревич, Андрей Леонов, Василий Степанов-Описание: XXI век. Мегаполис. Сотни, тысячи людей окружают тебя каждый день. Но ты даже и представить себе не можешь, что среди этой многоликой толпы прямо перед тобой может оказаться... Ангел. Студентка Саша с большим трудом верит, что такое бывает. Ангелу Серафиму приходится приложить немало усилий, чтобы доказать ей, что Ангелы существуют. Но он не учёл одного — если девушка тебе поверит, она, скорее всего, тебя полюбит. А разве можно влюбиться в Ангела?-Качество: BDRip1080p
Формат: MKV
Видео кодек: H.26x
Аудио кодек: AC3
Видео: MPEG-4 AVC, 11000 Кбит/с, 1920x1080, 23.976 кадр/с
Аудио: AC3, 6 ch, 640 Кбит/с

-

M.I

Код:
General
Unique ID                        : 247278013650485402285233805976437640500 (0xBA08035B0880743F972C2F0D4281CD34)
Complete name                    : C:\Users\Obezjan\Desktop\Moj.paren.angel.2011.x264.BDRip.(1080p).mkv
Format                           : Matroska
Format version                   : Version 2
File size                        : 7.76 GiB
Duration                         : 1h 37mn
Overall bit rate                 : 11.4 Mbps
Encoded date                     : UTC 2012-01-26 17:47:04
Writing application              : mkvmerge v5.2.0 ('I can't explain') built on Dec 18 2011 18:12:03
Writing library                  : libebml v1.2.3 + libmatroska v1.3.0
Video
ID                               : 1
Format                           : AVC
Format/Info                      : Advanced Video Codec
Format profile                   : [email protected]
Format settings, CABAC           : Yes
Format settings, ReFrames        : 4 frames
Muxing mode                      : Header stripping
Codec ID                         : V_MPEG4/ISO/AVC
Duration                         : 1h 37mn
Bit rate                         : 11.0 Mbps
Width                            : 1 920 pixels
Height                           : 1 080 pixels
Display aspect ratio             : 16:9
Frame rate mode                  : Variable
Frame rate                       : 23.976 fps
Color space                      : YUV
Chroma subsampling               : 4:2:0
Bit depth                        : 8 bits
Scan type                        : Progressive
Bits/(Pixel*Frame)               : 0.221
Stream size                      : 7.17 GiB (92%)
Writing library                  : x264 core 112
Encoding settings                : cabac=1 / ref=4 / deblock=1:0:0 / analyse=0x1:0x111 / me=hex / subme=7 / psy=1 / psy_rd=1.00:0.00 / mixed_ref=0 / me_range=16 / chroma_me=1 / trellis=1 / 8x8dct=0 / cqm=0 / deadzone=21,11 / fast_pskip=1 / chroma_qp_offset=-2 / threads=6 / sliced_threads=0 / nr=0 / decimate=1 / interlaced=0 / constrained_intra=0 / bframes=3 / b_pyramid=2 / b_adapt=1 / b_bias=0 / direct=1 / weightb=0 / open_gop=0 / weightp=2 / keyint=240 / keyint_min=23 / scenecut=40 / intra_refresh=0 / rc_lookahead=40 / rc=abr / mbtree=1 / bitrate=11000 / ratetol=1.0 / qcomp=0.60 / qpmin=3 / qpmax=51 / qpstep=4 / ip_ratio=1.40 / aq=1:1.00
Language                         : English
Default                          : Yes
Forced                           : No
Color primaries                  : BT.709-5, BT.1361, IEC 61966-2-4, SMPTE RP177
Transfer characteristics         : BT.709-5, BT.1361
Matrix coefficients              : BT.709-5, BT.1361, IEC 61966-2-4 709, SMPTE RP177
Audio
ID                               : 2
Format                           : AC-3
Format/Info                      : Audio Coding 3
Mode extension                   : CM (complete main)
Muxing mode                      : Header stripping
Codec ID                         : A_AC3
Duration                         : 1h 37mn
Bit rate mode                    : Constant
Bit rate                         : 640 Kbps
Channel(s)                       : 6 channels
Channel positions                : Front: L C R, Side: L R, LFE
Sampling rate                    : 48.0 KHz
Bit depth                        : 16 bits
Compression mode                 : Lossy
Stream size                      : 446 MiB (6%)
Language                         : Russian
Default                          : Yes
Forced                           : No
-

Скриншоты

         

_________________


Last edited by sassad on 2012-01-27 20:12; edited 4 times in total
Other forum [Profile] [PM]
Display posts from previous:    
Reply to topic

The time now is: Today 15:10

All times are GMT + 3 Hours



You cannot post new topics in this forum
You cannot reply to topics in this forum
You cannot edit your posts in this forum
You cannot delete your posts in this forum
You cannot vote in polls in this forum
You cannot attach files in this forum
You cannot download files in this forum