Today is a free download without charge Download

Школа с уклоном, или Урок-опера для родителей (Л. Апраксина) [1984, Молдова-филм, музыкальная анимация, TeleSynch]

Reply to topic
 
Author
Message

Omen ®

Longevity: 7 years 11 months

Posts: 181087

Торрент-статистика

Post 20-Oct-2014 23:04

[Quote]

Школа с уклоном, или Урок-опера для родителей
Страна: СССР
Жанр: музыкальная анимация
Продолжительность: 00:09:00
Год выпуска: 1984
Режиссёр: Л. Апраксина
Автор сценария: Г. Бардин
Стихи : Ю. Энтин
Описание: В мультфильме высмеивается стремление некоторых родителей вырастить из своих детей вундеркиндов даже тогда, когда для этого нет никаких оснований
Доп. информация: Фильм оцифрован с киноплёнки 16-мм
Качество: TeleSynch
Формат: MPEG
Видео: MPEG, 4:3, 720х576, 25 fps, 3765 kbps
Аудио: Layer 2, 48 кHz, 2 ch, 256 kbps

Подробные технические данные

ОбщееПолное имя :Школа с уклоном, или урок-опера для родителей.mpgФормат : MPEG-PSРазмер файла : 243 МбайтПродолжительность : 9 м. 2 с.Режим общего битрейта : ПеременныйОбщий поток : 3765 Кбит/сек
ВидеоИдентификатор : 224 (0xE0)Формат : MPEG VideoВерсия формата : Version 2Профиль формата : [email protected]Параметр BVOP формата : ДаПараметр матрицы формата : По умолчаниюПараметр GOP формата : VariableПродолжительность : 9 м. 2 с.Вид битрейта : ПеременныйБитрейт : 3434 Кбит/секШирина : 720 пикселейВысота : 576 пикселейСоотношение сторон : 5:4Частота кадров : 25,000 кадров/секСтандарт вещания : PALЦветовое пространство : YUVСубдискретизация насыщенности : 4:2:0Битовая глубина : 8 битТип развёртки : ПрогрессивнаяМетод сжатия : С потерямиБит/(Пиксели*Кадры) : 0.331Временной код первого кадра : 00:00:00:00Оригинал временного кода : Group of pictures headerРазмер потока : 222 Мбайт (91%)
АудиоИдентификатор : 192 (0xC0)Формат : MPEG AudioВерсия формата : Version 1Профиль формата : Layer 2Продолжительность : 9 м. 2 с.Вид битрейта : ПостоянныйБитрейт : 256 Кбит/секКаналы : 2 каналаЧастота : 48,0 КГцМетод сжатия : С потерямиРазмер потока : 16,6 Мбайт (7%)

Скриншоты

, , ,
Other forum [Profile] [PM]
Similar theme
Forum Topic Author Torrent Replies Last Post
./templates/default/images/folder_dl.gif Обучающее видео Алена Кравченко - Видеошкола игры на гитаре. Сборник (диск 1, 2, 3 и видеоразборы песен группы Ария) [2009, DVDRip, RUS] sashau
1 | 0

0 | 2772

22

2013-05-14 20:20
sashau Latest
Display posts from previous:    
Reply to topic

The time now is: Today 21:27

All times are GMT + 3 Hours



You cannot post new topics in this forum
You cannot reply to topics in this forum
You cannot edit your posts in this forum
You cannot delete your posts in this forum
You cannot vote in polls in this forum
You cannot attach files in this forum
You cannot download files in this forum