Today is a free download without charge Download

Белые ночи почтальона Алексея Тряпицына (Андрей Кончаловский) [2014, Россия, Драма, HDTV 1080i]

Reply to topic
 
Author
Message

Omen ®

Longevity: 8 years 10 months

Posts: 181086

Торрент-статистика

Post 19-Oct-2014 23:00

[Quote]

Белые ночи почтальона Алексея Тряпицына
Год выпуска: 2014
Производство: Продюсерский Центр Андрея Кончаловского
Жанр: Драма
Продолжительность: ~01:29:36
Субтитры: нет
Режиссёр: Андрей Кончаловский
В ролях: Алексей Тряпицын, Ирина Ермолова, Тимур Бондаренко
Описание: Новый проект Андрея Кончаловского продолжает серию работ о русской деревне, которую режиссер начал картиной «История Аси Клячиной, которая любила, да не вышла замуж», а затем продолжил фильмом «Курочка ряба».
Во многих деревнях России из-за их удаленности от городов и бездорожья люди живут как бы вне государства. В таких местах они практически предоставлены сами себе. Зачастую единственным представителем государства в подобных краях становится почтальон. Он – главное связующее звено между немногочисленными жителями заброшенных деревень и цивилизацией. Один из таких почтальонов станет главным героем картины.
В каждой деревне – свои судьбы, свои истории, свои традиции. Понять систему ценностей этих людей, научиться у них ответственности за то, что ты делаешь, – ради этого Андрей Кончаловский и задумал этот фильм.

Качество: HDTV 1080i
Контейнер: TS
Видео: MPEG4 Video (H264) 1920x1080, ~ 8756 Кбит/сек, 25.00fps 0.169 bit/pixel
Аудио: AC-3, 6 ch, 48,0 КГц, 384 Кбит/с
Сторонней рекламы нет!

MediaInfo

ОбщееИдентификатор : 1 (0x1)Полное имя : D:\Запись\Belye.nochi.pochtalona.Alekseya.Tryapitsyna.HDTV(1080i).MediaClub.tsФормат : MPEG-TSРазмер файла : 6,14 ГбайтПродолжительность : 1 ч. 31 м.Режим общего битрейта : ПеременныйОбщий поток : 9619 Кбит/сек
ВидеоИдентификатор : 4121 (0x1019)Идентификатор меню : 1 (0x1)Формат : AVCФормат/Информация : Advanced Video CodecПрофиль формата : [email protected]Параметр CABAC формата : ДаПараметр ReFrames формата : 3 кадраИдентификатор кодека : 27Продолжительность : 1 ч. 31 м.Битрейт : 8756 Кбит/секШирина : 1920 пикселейВысота : 1080 пикселейСоотношение сторон : 16:9Частота кадров : 25,000 кадров/секСтандарт вещания : ComponentЦветовое пространство : YUVСубдискретизация насыщенности : 4:2:0Битовая глубина : 8 битТип развёртки : ЧересстрочнаяПорядок развёртки : Верхнее поле первоеБит/(Пиксели*Кадры) : 0.169Размер потока : 5,59 Гбайт (91%)Основные цвета : BT.709Характеристики трансфера : BT.709Коэффициенты матрицы : BT.709
АудиоИдентификатор : 4125 (0x101D)Идентификатор меню : 1 (0x1)Формат : AC-3Формат/Информация : Audio Coding 3Расширение режима : CM (complete main)Параметр Endianness формата : BigИдентификатор кодека : 6Продолжительность : 1 ч. 31 м.Вид битрейта : ПостоянныйБитрейт : 384 Кбит/секКаналы : 6 каналовРасположение каналов : Front: L C R, Side: L R, LFEЧастота : 48,0 КГцБитовая глубина : 16 битМетод сжатия : С потерямиРазмер потока : 251 Мбайт (4%)Язык : Russian

Скриншоты

Other forum [Profile] [PM]
Display posts from previous:    
Reply to topic

The time now is: Today 21:42

All times are GMT + 3 Hours



You cannot post new topics in this forum
You cannot reply to topics in this forum
You cannot edit your posts in this forum
You cannot delete your posts in this forum
You cannot vote in polls in this forum
You cannot attach files in this forum
You cannot download files in this forum