Today is a free download without charge Download

22 минуты (Василий Сериков) [2014, Россия, боевик, WEB-DL 720p] [Open Matte] + Original Rus

Reply to topic
 
Author
Message

Omen ®

Longevity: 8 years 10 months

Posts: 181086

Торрент-статистика

Post 19-Oct-2014 14:32

[Quote]

22 минуты / Open Matte
Страна: Россия
Студия: Централ Партнёршип
Жанр: боевик
Год выпуска: 2014
Продолжительность: 01:19:31
Перевод: Не требуется
Cубтитры: нет
Режиссер: Василий Сериков
В ролях: Макар Запорожский, Денис Никифоров, Виктор Сухоруков, Екатерина Маликова, Гаэль Камилинди, Александр Галибин, Владислав Дёмин, Ибрагим Тооре, Софья Козко, Иван Породнов
Описание: Морпех — первогодок Саня Ежов оказывается среди пиратов на захваченном танкере. Он знает — товарищи не бросят. Ему нужно выжить и помочь своим, когда начнется штурм. Фильм основан на реальных событиях 5 мая 2010 года, когда морские пехотинцы БПК «Маршал Шапошников» освободили захваченный в водах Аденского залива российский танкер «Московский университет». У них было только 22 минуты без права на ошибку…
Доп. информация: За WEB-DL, большое спасибо HDClub
------------------------------------------------------
Озвучивание - Лицензия (BD-Rus)
Тип релиза: WEB-DL 720p
Контейнер: MKV
Видео: MPEG-4 AVC, 4235 Кбит/с, [email protected], 25 кадр/с
Аудио: AC3, 6 ch, 640 Кбит/с, 48,0 КГц
Аудио 2: DTS, 6 ch, 1509 кбит/c, 48,0 КГц

MediaInfo

Общее
Уникальный идентификатор : 226699650576690423572074168742141796595 (0xAA8CC3B913501E3F917CD22B489CA0F3)
Полное имя : C:\Users\Семен\Downloads\22.Minuti.2014.WEB-DL.(720p). .ExKinoRay.mkv
Формат : Matroska
Версия формата : Version 2
Размер файла : 3,39 Гбайт
Продолжительность : 1 ч. 19 м.
Общий поток : 6102 Кбит/сек
Название фильма : 22 Минуты. 2014. ExKinoRay
Дата кодирования : UTC 2014-06-15 19:11:05
Программа кодирования : mkvmerge v5.6.0 ('Kenya Kane') built on May 27 2012 16:44:04
Библиотека кодирования : libebml v1.2.3 + libmatroska v1.3.0
Видео
Идентификатор : 1
Формат : AVC
Формат/Информация : Advanced Video Codec
Профиль формата : [email protected]
Параметр CABAC формата : Нет
Параметр ReFrames формата : 2 кадра
Идентификатор кодека : V_MPEG4/ISO/AVC
Продолжительность : 1 ч. 19 м.
Битрейт : 3831 Кбит/сек
Ширина : 960 пикселей
Высота : 720 пикселей
Соотношение сторон : 16:9
Режим частоты кадров : Постоянный
Частота кадров : 25,000 кадров/сек
Цветовое пространство : YUV
Субдискретизация насыщенности : 4:2:0
Битовая глубина : 8 бит
Тип развёртки : Прогрессивная
Бит/(Пиксели*Кадры) : 0.222
Размер потока : 2,13 Гбайт (63%)
Язык : Russian
Default : Да
Forced : Нет
Основные цвета : BT.709
Характеристики трансфера : BT.709
Коэффициенты матрицы : BT.709
Аудио #1
Идентификатор : 2
Формат : AC-3
Формат/Информация : Audio Coding 3
Расширение режима : CM (complete main)
Параметр Endianness формата : Big
Идентификатор кодека : A_AC3
Продолжительность : 1 ч. 19 м.
Вид битрейта : Постоянный
Битрейт : 640 Кбит/сек
Каналы : 6 каналов
Расположение каналов : Front: L C R, Side: L R, LFE
Частота : 48,0 КГц
Битовая глубина : 16 бит
Метод сжатия : С потерями
Размер потока : 364 Мбайт (10%)
Заголовок : Дублированный (BD-Rus)
Язык : Russian
Default : Да
Forced : Нет
Аудио #2
Идентификатор : 3
Формат : DTS
Формат/Информация : Digital Theater Systems
Режим : 16
Параметр Endianness формата : Big
Идентификатор кодека : A_DTS
Продолжительность : 1 ч. 19 м.
Вид битрейта : Постоянный
Битрейт : 1509 Кбит/сек
Каналы : 6 каналов
Расположение каналов : Front: L C R, Side: L R, LFE
Частота : 48,0 КГц
Битовая глубина : 16 бит
Метод сжатия : С потерями
Размер потока : 858 Мбайт (25%)
Язык : Russian
Default : Нет
Forced : Нет
Меню
00:00:00.000 : en:Глава 1
00:07:12.000 : en:Глава 2
00:12:17.000 : en:Глава 3
00:17:21.000 : en:Глава 4
00:22:21.000 : en:Глава 5
00:27:23.000 : en:Глава 6
00:32:29.000 : en:Глава 7
00:37:52.000 : en:Глава 8
00:43:00.000 : en:Глава 9
00:48:02.000 : en:Глава 10
00:53:09.000 : en:Глава 11
00:58:12.000 : en:Глава 12
01:03:13.000 : en:Глава 13
01:08:18.000 : en:Глава 14

Скриншоты

Other forum [Profile] [PM]
Display posts from previous:    
Reply to topic

The time now is: Today 22:37

All times are GMT + 3 Hours



You cannot post new topics in this forum
You cannot reply to topics in this forum
You cannot edit your posts in this forum
You cannot delete your posts in this forum
You cannot vote in polls in this forum
You cannot attach files in this forum
You cannot download files in this forum