Today is a free download without charge Download

Мы-женщины (Е. Касавина, Л. Ткачикова) [1988, Киевнаучфильм, мультфильм для взрослых, VHSRip]

Reply to topic
 
Author
Message

Omen ®

Longevity: 7 years 11 months

Posts: 181087

Торрент-статистика

Post 18-Oct-2014 23:57

[Quote]

Мы-женщины
Страна: СССР
Жанр: мультфильм для взрослых
Продолжительность: 00:10:17
Год выпуска: 1988
Режиссёр: Е. Касавина, Л. Ткачикова
Описание: Мультфильм состоит из трёх миниатюр: "Самая красивая", "Сладкая жизнь", "Бревно". Первая миниатюра показывает как женщины себя "украшают", и к чему это приводит. Вторая и третья миниатюра повествует о тяжёлой женской доле.
Доп. информация: Фильм оцифрован с киноплёнки 16-мм из личного архива
Качество: VHSRip
Формат: mpg
Видео: MPEG, 4:3, 720х576, 25 fps, 3308 kbps
Аудио: Layer 2, 48 кHz, 2 ch, 256 kbps

Подробные технические данные

ОбщееПолное имя :Мы-женщины.mpgФормат : MPEG-PSРазмер файла : 244 МбайтПродолжительность : 10 м.Режим общего битрейта : ПеременныйОбщий поток : 3309 Кбит/сек
ВидеоИдентификатор : 224 (0xE0)Формат : MPEG VideoВерсия формата : Version 2Профиль формата : [email protected]Параметр BVOP формата : ДаПараметр матрицы формата : По умолчаниюПараметр GOP формата : VariableПродолжительность : 10 м.Вид битрейта : ПеременныйБитрейт : 2987 Кбит/секШирина : 720 пикселейВысота : 576 пикселейСоотношение сторон : 5:4Частота кадров : 25,000 кадров/секСтандарт вещания : PALЦветовое пространство : YUVСубдискретизация насыщенности : 4:2:0Битовая глубина : 8 битТип развёртки : ПрогрессивнаяМетод сжатия : С потерямиБит/(Пиксели*Кадры) : 0.288Временной код первого кадра : 00:00:00:00Оригинал временного кода : Group of pictures headerРазмер потока : 220 Мбайт (90%)
АудиоИдентификатор : 192 (0xC0)Формат : MPEG AudioВерсия формата : Version 1Профиль формата : Layer 2Продолжительность : 10 м.Вид битрейта : ПостоянныйБитрейт : 256 Кбит/секКаналы : 2 каналаЧастота : 48,0 КГцМетод сжатия : С потерямиРазмер потока : 18,8 Мбайт (8%)

Скриншоты

, , ,
Other forum [Profile] [PM]
Display posts from previous:    
Reply to topic

The time now is: Today 19:50

All times are GMT + 3 Hours



You cannot post new topics in this forum
You cannot reply to topics in this forum
You cannot edit your posts in this forum
You cannot delete your posts in this forum
You cannot vote in polls in this forum
You cannot attach files in this forum
You cannot download files in this forum