Today is a free download without charge Download

Солнечный луч (Камара Камалова) [1971, Узбекфильм, кукольная анимация, VHSRip]

Reply to topic
 
Author
Message

Omen ®

Longevity: 7 years 11 months

Posts: 181087

Торрент-статистика

Post 18-Oct-2014 23:27

[Quote]

Солнечный луч
Страна: СССР
Жанр: кукольная анимация
Продолжительность: 00:09:21
Год выпуска: 1971
Режиссёр: Камара Камалова
Описание: Кот сбросил на пол шкатулку с фарфоровой балериной, и она сломала ножку. На плач балерины прибежал храбрый мышонок, и помог балерине склеить ножку и отомстить коту.
Доп. информация: Фильм оцифрован с киноплёнки 16-мм
Качество: VHSRip
Формат: mpg
Видео: MPEG, 4:3, 720х576, 25 fps, 3637 kbps
Аудио: Layer 2, 48 кHz, 2 ch, 256 kbps

Подробные технические данные

ОбщееПолное имя :Солнечный луч.mpgФормат : MPEG-PSРазмер файла : 244 МбайтПродолжительность : 9 м. 21 с.Режим общего битрейта : ПеременныйОбщий поток : 3637 Кбит/сек
ВидеоИдентификатор : 224 (0xE0)Формат : MPEG VideoВерсия формата : Version 2Профиль формата : [email protected]Параметр BVOP формата : ДаПараметр матрицы формата : По умолчаниюПараметр GOP формата : VariableПродолжительность : 9 м. 21 с.Вид битрейта : ПеременныйБитрейт : 3309 Кбит/секШирина : 720 пикселейВысота : 576 пикселейСоотношение сторон : 5:4Частота кадров : 25,000 кадров/секСтандарт вещания : PALЦветовое пространство : YUVСубдискретизация насыщенности : 4:2:0Битовая глубина : 8 битТип развёртки : ПрогрессивнаяМетод сжатия : С потерямиБит/(Пиксели*Кадры) : 0.319Временной код первого кадра : 00:00:00:00Оригинал временного кода : Group of pictures headerРазмер потока : 222 Мбайт (91%)
АудиоИдентификатор : 192 (0xC0)Формат : MPEG AudioВерсия формата : Version 1Профиль формата : Layer 2Продолжительность : 9 м. 21 с.Вид битрейта : ПостоянныйБитрейт : 256 Кбит/секКаналы : 2 каналаЧастота : 48,0 КГцМетод сжатия : С потерямиРазмер потока : 17,1 Мбайт (7%)

Скриншоты

, , ,
Other forum [Profile] [PM]
Display posts from previous:    
Reply to topic

The time now is: Today 10:19

All times are GMT + 3 Hours



You cannot post new topics in this forum
You cannot reply to topics in this forum
You cannot edit your posts in this forum
You cannot delete your posts in this forum
You cannot vote in polls in this forum
You cannot attach files in this forum
You cannot download files in this forum