Сегодня идет свободное скачивание без начисления Download

Взорванный ад (Иван Лукинский) [1967 г., Драма, шпионский фильм, DVDRip]

Ответить на тему
 
Автор
Сообщение

Omen ®

Стаж: 6 лет

Сообщений: 184329

Торрент-статистика

Пост 25-Янв-2012 20:22

[Цитировать]

Взорванный ад-
Год выпуска: 1967.
Страна: СССР
Киностудия: Киностудия им. Горького.
Жанр: Драма, шпионский фильм.
Авторы сценария: Афанасий Салынский, Дмитриевич Салынский.
Оператор: Вадим Корнильев.
Композитор: Леонид Афанасьев.
Художник: Людмила Безсмертнова.
-Описание фильма:
Великая Отечественная война (1941-1945 г.г.). В одной из немецких разведшкол готовятся диверсионные группы из русских военнопленных для заброски в СССР. Сюда направлено несколько бывших советских разведчиков. Среди них — Николай Вережников, который, не будучи профессиональным разведчиком, сумел навязать собственную игру и помешать планам врага…-Режиссер: Иван Лукинский
Актеры: Геннадий Бортников, Сергей Яковлев, Николай Скоробогатов, Имеда Кахиани, Александр Новиков, Олев Эскола, Игорь Класс, Хейно Мандри, Владимир Протасенко, Рудольф Панков, Владимир Костин, Сергей Голованов, Ева Мурниеце, Людмила Гурченко-Продолжительность: 01:31:31- -Видеокодек: Xvid
Битрейт видео: ~1295 kbps
Размер кадра: 720x360
Качество видео: DVDRip
Аудиокодек: MP3, 1ch
Битрейт аудио: 56.00 kbps
-

mediainfo

Код:
Общее
Полное имя                       : E:\подготовка релизов\vzorvannyj_ad.avi
Формат                           : AVI
Формат/Информация                : Audio Video Interleave
Размер файла                     : 890 Мбайт
Продолжительность                : 1 ч. 31 м.
Общий поток                      : 1361 Кбит/сек
Программа кодирования            : VirtualDubModRus 1.5.10.2 (build 2540/release)
Библиотека кодирования           : VirtualDubMod build 2540/release
Видео
Идентификатор                    : 0
Формат                           : MPEG-4 Visual
Профиль формата                  : Advanced [email protected]
Параметр BVOP формата            : 2
Параметр QPel формата            : Нет
Параметр GMC формата             : Без точки перехода
Параметр матрицы формата         : Default (H.263)
Идентификатор кодека             : XVID
Идентификатор кодека/Подсказка   : XviD
Продолжительность                : 1 ч. 31 м.
Битрейт                          : 1295 Кбит/сек
Ширина                           : 720 пикселей
Высота                           : 360 пикселей
Соотношение сторон               : 2,000
Частота кадров                   : 25,000 кадров/сек
Цветовое пространство            : YUV
Субдискретизация насыщенности    : 4:2:0
Битовая глубина                  : 8 бит
Тип развёртки                    : Прогрессивная
Метод сжатия                     : С потерями
Бит/(Пиксели*Кадры)              : 0.200
Размер потока                    : 847 Мбайт (95%)
Библиотека кодирования           : XviD 1.2.1 (UTC 2008-12-04)
Аудио
Идентификатор                    : 1
Формат                           : MPEG Audio
Версия формата                   : Version 2
Профиль формата                  : Layer 3
Идентификатор кодека             : 55
Идентификатор кодека/Подсказка   : MP3
Продолжительность                : 1 ч. 31 м.
Вид битрейта                     : Постоянный
Битрейт                          : 56,0 Кбит/сек
Каналы                           : 1 канал
Частота                          : 24,0 КГц
Метод сжатия                     : С потерями
Размер потока                    : 36,6 Мбайт (4%)
Выравнивание                     : Соединение по промежуткам
Продолжительность промежутка     : 40  мс. (1,00 видеокадр)
Время предзагрузки промежутка    : 504  мс.
-Скриншоты:
         
Вне форума [Профиль] [ЛС]
Показать сообщения:    
Ответить на тему

Текущее время: Сегодня 15:49

Часовой пояс: GMT + 3



Вы не можете начинать темы
Вы не можете отвечать на сообщения
Вы не можете редактировать свои сообщения
Вы не можете удалять свои сообщения
Вы не можете голосовать в опросах
Вы не можете прикреплять файлы к сообщениям
Вы не можете скачивать файлы