Today is a free download without charge Download

Четвертый (1972) DVD5

Reply to topic
 
Author
Message

Omen ®

Longevity: 8 years 10 months

Posts: 181086

Торрент-статистика

Post 25-Jan-2012 19:14

[Quote]

Четвертый - Русское название: Четвертый
Год выпуска: 1972
Жанр: Драма-Описание фильма:
Американский журналист волей обстоятельств поставлен перед выбором: предать огласке преступные планы сторонников войны, рискуя при этом лишиться всех жизненных благ, которых он добился за последние годы, или отступить. «Четвёртый» — фильм, снятый советским режиссёром Александром Столпером по одноимённой пьесе Константина Симонова, датируемой 1961-м годом. В начале шестидесятых эта пьеса исполнялась многими театральными коллективами страны, среди которых такие гранды как БДТ и «Современник».-Режиссер: Александр Столпер
Актеры: Владимир Высоцкий, Маргарита Терехова, Сергей Шакуров, Александр Кайдановский, Сергей Сазонтьев, Юрий Соломин, Татьяна Васильева, Марис Лиепа, Армен Джигарханян, Юозас Будрайтис, Михай Волонтир, Лев Дуров, Лев Круглый, Леонид Кулагин, Зинаида Славина

Продолжительность: 01:07:26- -Видеокодек: MPEG 2 Video
Битрейт видео:~7530 Кбит/сек
Размер кадра: PAL 4:3 (704x576) VBR
Качество видео: DVD5
Аудиокодек: AC3, 2ch
Битрейт аудио: 384 Кбит/сек-

mediainfo

Код:
Общее
Полное имя                       : C:\Users\1\Downloads\Chetvertiy.1972.DVD-5\VIDEO_TS\VIDEO_TS.BUP
Формат                           : DVD Video
Профиль формата                  : Menu
Размер файла                     : 12,0 Кбайт
Режим общего битрейта            : Переменный
Видео
Идентификатор                    : 224 (0xE0)
Формат                           : MPEG Video
Версия формата                   : Version 2
Вид битрейта                     : Переменный
Ширина                           : 720 пикселей
Высота                           : 576 пикселей
Соотношение сторон               : 4:3
Частота кадров                   : 25,000 кадров/сек
Стандарт вещания                 : PAL
Метод сжатия                     : С потерями
Аудио
Формат                           : AC-3
Формат/Информация                : Audio Coding 3
Каналы                           : 2 канала
Частота                          : 48,0 КГц
Метод сжатия                     : С потерями
Текст
Формат                           : RLE
Формат/Информация                : Run-length encoding
Битовая глубина                  : 2 бит
Общее
Полное имя                       : C:\Users\1\Downloads\Chetvertiy.1972.DVD-5\VIDEO_TS\VIDEO_TS.IFO
Формат                           : DVD Video
Профиль формата                  : Menu
Размер файла                     : 12,0 Кбайт
Режим общего битрейта            : Переменный
Видео
Идентификатор                    : 224 (0xE0)
Формат                           : MPEG Video
Версия формата                   : Version 2
Вид битрейта                     : Переменный
Ширина                           : 720 пикселей
Высота                           : 576 пикселей
Соотношение сторон               : 4:3
Частота кадров                   : 25,000 кадров/сек
Стандарт вещания                 : PAL
Метод сжатия                     : С потерями
Аудио
Формат                           : AC-3
Формат/Информация                : Audio Coding 3
Каналы                           : 2 канала
Частота                          : 48,0 КГц
Метод сжатия                     : С потерями
Текст
Формат                           : RLE
Формат/Информация                : Run-length encoding
Битовая глубина                  : 2 бит
Общее
Полное имя                       : C:\Users\1\Downloads\Chetvertiy.1972.DVD-5\VIDEO_TS\VIDEO_TS.VOB
Формат                           : MPEG-PS
Размер файла                     : 20,5 Мбайт
Продолжительность                : 29 с.
Режим общего битрейта            : Переменный
Общий поток                      : 5766 Кбит/сек
Видео
Идентификатор                    : 224 (0xE0)
Формат                           : MPEG Video
Версия формата                   : Version 2
Профиль формата                  : [email protected]
Параметр BVOP формата            : Да
Параметр матрицы формата         : Выборочная
Параметр GOP формата             : M=3, N=15
Продолжительность                : 29 с.
Вид битрейта                     : Переменный
Битрейт                          : 5427 Кбит/сек
Максимальный битрейт             : 8000 Кбит/сек
Ширина                           : 720 пикселей
Высота                           : 576 пикселей
Соотношение сторон               : 4:3
Частота кадров                   : 25,000 кадров/сек
Стандарт вещания                 : PAL
Цветовое пространство            : YUV
Субдискретизация насыщенности    : 4:2:0
Битовая глубина                  : 8 бит
Тип развёртки                    : Чересстрочная
Порядок развёртки                : Верхнее поле первое
Метод сжатия                     : С потерями
Бит/(Пиксели*Кадры)              : 0.523
Размер потока                    : 19,3 Мбайт (94%)
Основные цвета                   : SMPTE 170M
Характеристики трансфера         : SMPTE 170M
Коэффициенты матрицы             : SMPTE 170M
Аудио
Идентификатор                    : 189 (0xBD)-128 (0x80)
Формат                           : AC-3
Формат/Информация                : Audio Coding 3
Расширение режима                : CM (complete main)
Режим смешивания                 : DVD-Video
Продолжительность                : 29 с.
Вид битрейта                     : Постоянный
Битрейт                          : 224 Кбит/сек
Каналы                           : 2 канала
Расположение каналов             : Front: L R
Частота                          : 48,0 КГц
Битовая глубина                  : 16 бит
Метод сжатия                     : С потерями
Размер потока                    : 803 Кбайт (4%)
Текст
Идентификатор                    : 189 (0xBD)-32 (0x20)
Формат                           : RLE
Формат/Информация                : Run-length encoding
Режим смешивания                 : DVD-Video
Меню
Общее
Полное имя                       : C:\Users\1\Downloads\Chetvertiy.1972.DVD-5\VIDEO_TS\VTS_01_0.BUP
Формат                           : DVD Video
Профиль формата                  : Program
Размер файла                     : 56,0 Кбайт
Продолжительность                : 1 ч. 7 м.
Режим общего битрейта            : Переменный
Общий поток                      : 113 бит/сек
Видео
Идентификатор                    : 224 (0xE0)
Формат                           : MPEG Video
Версия формата                   : Version 2
Продолжительность                : 1 ч. 7 м.
Вид битрейта                     : Переменный
Ширина                           : 720 пикселей
Высота                           : 576 пикселей
Соотношение сторон               : 4:3
Частота кадров                   : 25,000 кадров/сек
Стандарт вещания                 : PAL
Метод сжатия                     : С потерями
Аудио
Идентификатор                    : 128 (0x80)
Формат                           : AC-3
Формат/Информация                : Audio Coding 3
Продолжительность                : 1 ч. 7 м.
Каналы                           : 2 канала
Частота                          : 48,0 КГц
Метод сжатия                     : С потерями
Язык                             : Russian
Меню
Продолжительность                : 1 ч. 7 м.
00:00:00.000                     : Chapter 1
00:08:16.800                     : Chapter 2
00:17:17.160                     : Chapter 3
00:22:34.080                     : Chapter 4
00:35:22.080                     : Chapter 5
00:37:48.000                     : Chapter 6
00:45:10.920                     : Chapter 7
00:52:46.080                     : Chapter 8
01:00:13.800                     : Chapter 9
List (Audio)                     : 0
Общее
Полное имя                       : C:\Users\1\Downloads\Chetvertiy.1972.DVD-5\VIDEO_TS\VTS_01_0.IFO
Формат                           : DVD Video
Профиль формата                  : Program
Размер файла                     : 56,0 Кбайт
Продолжительность                : 1 ч. 7 м.
Режим общего битрейта            : Переменный
Общий поток                      : 113 бит/сек
Видео
Идентификатор                    : 224 (0xE0)
Формат                           : MPEG Video
Версия формата                   : Version 2
Продолжительность                : 1 ч. 7 м.
Вид битрейта                     : Переменный
Ширина                           : 720 пикселей
Высота                           : 576 пикселей
Соотношение сторон               : 4:3
Частота кадров                   : 25,000 кадров/сек
Стандарт вещания                 : PAL
Метод сжатия                     : С потерями
Аудио
Идентификатор                    : 128 (0x80)
Формат                           : AC-3
Формат/Информация                : Audio Coding 3
Продолжительность                : 1 ч. 7 м.
Каналы                           : 2 канала
Частота                          : 48,0 КГц
Метод сжатия                     : С потерями
Язык                             : Russian
Меню
Продолжительность                : 1 ч. 7 м.
00:00:00.000                     : Chapter 1
00:08:16.800                     : Chapter 2
00:17:17.160                     : Chapter 3
00:22:34.080                     : Chapter 4
00:35:22.080                     : Chapter 5
00:37:48.000                     : Chapter 6
00:45:10.920                     : Chapter 7
00:52:46.080                     : Chapter 8
01:00:13.800                     : Chapter 9
List (Audio)                     : 0
Общее
Полное имя                       : C:\Users\1\Downloads\Chetvertiy.1972.DVD-5\VIDEO_TS\VTS_01_0.VOB
Формат                           : MPEG-PS
Размер файла                     : 20,9 Мбайт
Продолжительность                : 35 с.
Режим общего битрейта            : Переменный
Общий поток                      : 5004 Кбит/сек
Видео
Идентификатор                    : 224 (0xE0)
Формат                           : MPEG Video
Версия формата                   : Version 2
Профиль формата                  : [email protected]
Параметр BVOP формата            : Да
Параметр матрицы формата         : По умолчанию
Продолжительность                : 35 с.
Вид битрейта                     : Переменный
Битрейт                          : 4520 Кбит/сек
Ширина                           : 720 пикселей
Высота                           : 576 пикселей
Соотношение сторон               : 4:3
Частота кадров                   : 25,000 кадров/сек
Стандарт вещания                 : PAL
Цветовое пространство            : YUV
Субдискретизация насыщенности    : 4:2:0
Битовая глубина                  : 8 бит
Тип развёртки                    : Прогрессивная
Метод сжатия                     : С потерями
Бит/(Пиксели*Кадры)              : 0.436
Размер потока                    : 18,9 Мбайт (90%)
Основные цвета                   : BT.470-2 System B, BT.470-2 System G
Характеристики трансфера         : BT.470-2 System B, BT.470-2 System G
Коэффициенты матрицы             : BT.470-2 System B, BT.470-2 System G
Аудио
Идентификатор                    : 189 (0xBD)-128 (0x80)
Формат                           : AC-3
Формат/Информация                : Audio Coding 3
Расширение режима                : CM (complete main)
Режим смешивания                 : DVD-Video
Продолжительность                : 34 с.
Вид битрейта                     : Постоянный
Битрейт                          : 384 Кбит/сек
Каналы                           : 2 канала
Расположение каналов             : Front: L R
Частота                          : 48,0 КГц
Битовая глубина                  : 16 бит
Метод сжатия                     : С потерями
Размер потока                    : 1,59 Мбайт (8%)
Текст
Идентификатор                    : 189 (0xBD)-32 (0x20)
Формат                           : RLE
Формат/Информация                : Run-length encoding
Режим смешивания                 : DVD-Video
Меню
Общее
Полное имя                       : C:\Users\1\Downloads\Chetvertiy.1972.DVD-5\VIDEO_TS\VTS_01_1.VOB
Формат                           : MPEG-PS
Размер файла                     : 1024 Мбайт
Продолжительность                : 17 м.
Общий поток                      : 8057 Кбит/сек
Видео
Идентификатор                    : 224 (0xE0)
Формат                           : MPEG Video
Версия формата                   : Version 2
Профиль формата                  : [email protected]
Параметр BVOP формата            : Да
Параметр матрицы формата         : Выборочная
Параметр GOP формата             : M=3, N=12
Продолжительность                : 17 м.
Битрейт                          : 7530 Кбит/сек
Ширина                           : 720 пикселей
Высота                           : 576 пикселей
Соотношение сторон               : 4:3
Частота кадров                   : 25,000 кадров/сек
Стандарт вещания                 : PAL
Цветовое пространство            : YUV
Субдискретизация насыщенности    : 4:2:0
Битовая глубина                  : 8 бит
Тип развёртки                    : Чересстрочная
Порядок развёртки                : Верхнее поле первое
Метод сжатия                     : С потерями
Бит/(Пиксели*Кадры)              : 0.726
Размер потока                    : 955 Мбайт (93%)
Аудио
Идентификатор                    : 189 (0xBD)-128 (0x80)
Формат                           : AC-3
Формат/Информация                : Audio Coding 3
Расширение режима                : CM (complete main)
Режим смешивания                 : DVD-Video
Продолжительность                : 17 м.
Вид битрейта                     : Постоянный
Битрейт                          : 384 Кбит/сек
Каналы                           : 2 канала
Расположение каналов             : Front: L R
Частота                          : 48,0 КГц
Битовая глубина                  : 16 бит
Метод сжатия                     : С потерями
Задержка видео                   : -80 мс.
Размер потока                    : 48,8 Мбайт (5%)
Меню
Общее
Полное имя                       : C:\Users\1\Downloads\Chetvertiy.1972.DVD-5\VIDEO_TS\VTS_01_2.VOB
Формат                           : MPEG-PS
Размер файла                     : 1024 Мбайт
Продолжительность                : 17 м.
Общий поток                      : 8057 Кбит/сек
Видео
Идентификатор                    : 224 (0xE0)
Формат                           : MPEG Video
Версия формата                   : Version 2
Профиль формата                  : [email protected]
Параметр BVOP формата            : Да
Параметр матрицы формата         : Выборочная
Параметр GOP формата             : M=3, N=12
Продолжительность                : 17 м.
Битрейт                          : 7530 Кбит/сек
Ширина                           : 720 пикселей
Высота                           : 576 пикселей
Соотношение сторон               : 4:3
Частота кадров                   : 25,000 кадров/сек
Стандарт вещания                 : PAL
Цветовое пространство            : YUV
Субдискретизация насыщенности    : 4:2:0
Битовая глубина                  : 8 бит
Тип развёртки                    : Чересстрочная
Порядок развёртки                : Верхнее поле первое
Метод сжатия                     : С потерями
Бит/(Пиксели*Кадры)              : 0.726
Размер потока                    : 954 Мбайт (93%)
Аудио
Идентификатор                    : 189 (0xBD)-128 (0x80)
Формат                           : AC-3
Формат/Информация                : Audio Coding 3
Расширение режима                : CM (complete main)
Режим смешивания                 : DVD-Video
Продолжительность                : 17 м.
Вид битрейта                     : Постоянный
Битрейт                          : 384 Кбит/сек
Каналы                           : 2 канала
Расположение каналов             : Front: L R
Частота                          : 48,0 КГц
Битовая глубина                  : 16 бит
Метод сжатия                     : С потерями
Задержка видео                   : -632 мс.
Размер потока                    : 48,8 Мбайт (5%)
Меню
Общее
Полное имя                       : C:\Users\1\Downloads\Chetvertiy.1972.DVD-5\VIDEO_TS\VTS_01_3.VOB
Формат                           : MPEG-PS
Размер файла                     : 1024 Мбайт
Продолжительность                : 17 м.
Общий поток                      : 8058 Кбит/сек
Видео
Идентификатор                    : 224 (0xE0)
Формат                           : MPEG Video
Версия формата                   : Version 2
Профиль формата                  : [email protected]
Параметр BVOP формата            : Да
Параметр матрицы формата         : Выборочная
Параметр GOP формата             : M=3, N=12
Продолжительность                : 17 м.
Битрейт                          : 7530 Кбит/сек
Ширина                           : 720 пикселей
Высота                           : 576 пикселей
Соотношение сторон               : 4:3
Частота кадров                   : 25,000 кадров/сек
Стандарт вещания                 : PAL
Цветовое пространство            : YUV
Субдискретизация насыщенности    : 4:2:0
Битовая глубина                  : 8 бит
Тип развёртки                    : Чересстрочная
Порядок развёртки                : Верхнее поле первое
Метод сжатия                     : С потерями
Бит/(Пиксели*Кадры)              : 0.726
Размер потока                    : 955 Мбайт (93%)
Аудио
Идентификатор                    : 189 (0xBD)-128 (0x80)
Формат                           : AC-3
Формат/Информация                : Audio Coding 3
Расширение режима                : CM (complete main)
Режим смешивания                 : DVD-Video
Продолжительность                : 17 м.
Вид битрейта                     : Постоянный
Битрейт                          : 384 Кбит/сек
Каналы                           : 2 канала
Расположение каналов             : Front: L R
Частота                          : 48,0 КГц
Битовая глубина                  : 16 бит
Метод сжатия                     : С потерями
Задержка видео                   : -656 мс.
Размер потока                    : 48,8 Мбайт (5%)
Меню
Общее
Полное имя                       : C:\Users\1\Downloads\Chetvertiy.1972.DVD-5\VIDEO_TS\VTS_01_4.VOB
Формат                           : MPEG-PS
Размер файла                     : 805 Мбайт
Продолжительность                : 13 м.
Общий поток                      : 8057 Кбит/сек
Видео
Идентификатор                    : 224 (0xE0)
Формат                           : MPEG Video
Версия формата                   : Version 2
Профиль формата                  : [email protected]
Параметр BVOP формата            : Да
Параметр матрицы формата         : Выборочная
Параметр GOP формата             : M=3, N=12
Продолжительность                : 13 м.
Битрейт                          : 7530 Кбит/сек
Ширина                           : 720 пикселей
Высота                           : 576 пикселей
Соотношение сторон               : 4:3
Частота кадров                   : 25,000 кадров/сек
Стандарт вещания                 : PAL
Цветовое пространство            : YUV
Субдискретизация насыщенности    : 4:2:0
Битовая глубина                  : 8 бит
Тип развёртки                    : Чересстрочная
Порядок развёртки                : Верхнее поле первое
Метод сжатия                     : С потерями
Бит/(Пиксели*Кадры)              : 0.726
Размер потока                    : 751 Мбайт (93%)
Аудио
Идентификатор                    : 189 (0xBD)-128 (0x80)
Формат                           : AC-3
Формат/Информация                : Audio Coding 3
Расширение режима                : CM (complete main)
Режим смешивания                 : DVD-Video
Продолжительность                : 13 м.
Вид битрейта                     : Постоянный
Битрейт                          : 384 Кбит/сек
Каналы                           : 2 канала
Расположение каналов             : Front: L R
Частота                          : 48,0 КГц
Битовая глубина                  : 16 бит
Метод сжатия                     : С потерями
Задержка видео                   : -416 мс.
Размер потока                    : 38,4 Мбайт (5%)
Меню
Скриншоты:
         
         
Other forum [Profile] [PM]
Display posts from previous:    
Reply to topic

The time now is: Today 22:23

All times are GMT + 3 Hours



You cannot post new topics in this forum
You cannot reply to topics in this forum
You cannot edit your posts in this forum
You cannot delete your posts in this forum
You cannot vote in polls in this forum
You cannot attach files in this forum
You cannot download files in this forum