Today is a free download without charge Download

Старая пластинка (Вячеслав Котеночкин) [1982, музыкальный, DVB-AVC]

Reply to topic
 
Author
Message

Omen ®

Longevity: 7 years 11 months

Posts: 181087

Торрент-статистика

Post 14-Oct-2014 20:52

[Quote]

Старая пластинка
Страна: СССР
Жанр: музыкальный
Продолжительность: 00:14:37
Год выпуска: 1982
Русские субтитры: нет
Режиссёр: Вячеслав Котеночкин
Роли озвучивали: Леонид Утесмов, Эдит Утесова
Описание: На темы популярных песен в исполнении Утесова
Доп. информация: Запись потока *.ts со спутника ABS-2, 75° в.д., ремукс в *.mkv программой VideoReDo.
Качество видео: DVB-AVC
Формат видео: MKV
Видео: Advanced Video Codec, 720(768)x576 (4:3), 25,000 кадров/сек, 3087 Кбит/сек
Аудио: MPEG Audio, 48,0 КГц, 192 Кбит/сек, 2 канала
Субтитры: Отсутствуют

Подробные технические данные

ОбщееУникальный идентификатор : 78676975859386717658191685463984459914 (0x3B30A266580346AD597E94FBB48E508A)Полное имя : E:\Torrent\МУЛЬТ СТАРАЯ ПЛАСТИНКА (Kultura).mkvФормат : MatroskaВерсия формата : Version 2Размер файла : 350 МбайтПродолжительность : 14 м.Общий поток : 3346 Кбит/секПрограмма кодирования : Lavf52.64.2Библиотека кодирования : Lavf52.64.2
ВидеоИдентификатор : 1Формат : AVCФормат/Информация : Advanced Video CodecПрофиль формата : [email protected]Параметр CABAC формата : ДаПараметр ReFrames формата : 4 кадраИдентификатор кодека : V_MPEG4/ISO/AVCПродолжительность : 14 м.Битрейт : 3087 Кбит/секШирина : 720 пикселейВысота : 576 пикселейСоотношение сторон : 4:3Соотношение сторон в оригинале : 4:3Режим частоты кадров : ПостоянныйЧастота кадров : 25,000 кадров/секСтандарт вещания : PALЦветовое пространство : YUVСубдискретизация насыщенности : 4:2:0Битовая глубина : 8 битТип развёртки : MBAFFБит/(Пиксели*Кадры) : 0.298Размер потока : 323 Мбайт (92%)Default : ДаForced : Нет
АудиоИдентификатор : 2Формат : MPEG AudioВерсия формата : Version 1Профиль формата : Layer 2Режим : Joint stereoРасширение режима : Intensity Stereo + MS StereoИдентификатор кодека : A_MPEG/L2Идентификатор кодека/Подсказка : MP2Продолжительность : 14 м.Вид битрейта : ПостоянныйБитрейт : 192 Кбит/секКаналы : 2 каналаЧастота : 48,0 КГцМетод сжатия : С потерямиРазмер потока : 20,1 Мбайт (6%)Язык : EnglishDefault : ДаForced : Нет

Скриншоты

Other forum [Profile] [PM]
Display posts from previous:    
Reply to topic

The time now is: Today 16:50

All times are GMT + 3 Hours



You cannot post new topics in this forum
You cannot reply to topics in this forum
You cannot edit your posts in this forum
You cannot delete your posts in this forum
You cannot vote in polls in this forum
You cannot attach files in this forum
You cannot download files in this forum