Today is a free download without charge Download

О чём ещё говорят мужчины (Дмитрий Дьяченко) [2011, Россия, комедия, DVD9] R5 «Мистерия Звука»

Reply to topic
 
Author
Message

voovaz ®

Gender:

Longevity: 9 years

Posts: 87

Торрент-статистика

Post 24-Jan-2012 21:13

[Quote]

-О чём ещё говорят мужчины -Страна: Россия
Студия: Кинокомпания «Квадрат»
Жанр: комедия
Год выпуска: 2011
Мировая премьера: 29 декабря 2011
Российская премьера: 29 декабря 2011, «Централ Партнершип»
Дата выхода DVD: 26 января 2012, «Мистерия Звука»
Дата выхода Blu-Ray: 26 января 2012, «Мистерия Звука»
Продолжительность: 01:34:31
Перевод: Оригинал [Лицензия]
Cубтитры: нет
Оригинальная аудиодорожка: русский-Режиссер: Дмитрий Дьяченко-В ролях: Леонид Барац, Ростислав Хаит, Александр Демидов, Камиль Ларин, Алёна Бабенко, Екатерина Вилкова, Владимир Меньшов, Максим Виторган, Елена Подкаминская, Константин Чепурин-Описание: Действие фильма происходит в Москве, 31 декабря, в офисе рекламного агентства, которым руководит Саша Демидов, и в квартире Камиля.-Бонусы: Фильм о фильме- -Качество: DVD9 R5
Формат: DVD-Video
Видео кодек: MPEG2
Аудио кодек: AC3
Видео: PAL 16:9 (720x576(0.719)) MPEG Video, 25,000 кадр/сек, 7450 Кбит/сек
Аудио #1: Russian (Dolby AC3, 2 ch) 320 Кбит/сек, 48,0 КГц
Аудио #2: Russian (Dolby AC3, 6 ch) 448 Кбит/сек, 48,0 КГц
Аудио #3: Russian (DTS, 6 ch) 768 Кбит/сек, 48,0 КГц-
-

DVDInfo

Title:
Size: 6.59 Gb ( 6 908 384 KBytes ) - DVD-9
Enabled regions: 1, 2, 3, 4, 5, 6, 7, 8
VTS_01 :
Play Length: 00:00:16
Video: PAL 16:9 (720x576) VBR, Auto Letterboxed
Audio:
Russian (Dolby AC3, 2 ch)
VTS_02 :
Play Length: 01:34:31
Video: PAL 16:9 (720x576) VBR, Auto Letterboxed
Audio:
Russian (Dolby AC3, 2 ch)
Russian (Dolby AC3, 6 ch)
Russian (DTS, 6 ch)
VTS_03 :
Play Length: 00:19:18
Video: PAL 16:9 (720x576) VBR, Auto Letterboxed
Audio:
Russian (Dolby AC3, 2 ch)

MediaInfo

Общее
Полное имя : G:\Новинки 2012\O.chjom.ewjo.govorjat.muzhchiny.2011.DVD9\VIDEO_TS\VTS_02_1.VOB
Формат : MPEG-PS
Размер файла : 1024 Мбайт
Продолжительность : 15 м.
Общий поток : 9155 Кбит/сек
Видео
Идентификатор : 224 (0xE0)
Формат : MPEG Video
Версия формата : Version 2
Профиль формата : [email protected]
Параметр BVOP формата : Да
Параметр матрицы формата : Выборочная
Продолжительность : 15 м.
Вид битрейта : Переменный
Битрейт : 7450 Кбит/сек
Максимальный битрейт : 8000 Кбит/сек
Ширина : 720 пикселей
Высота : 576 пикселей
Соотношение сторон : 16:9
Частота кадров : 25,000 кадров/сек
Стандарт вещания : PAL
Цветовое пространство : YUV
Субдискретизация насыщенности : 4:2:0
Битовая глубина : 8 бит
Тип развёртки : Прогрессивная
Метод сжатия : С потерями
Бит/(Пиксели*Кадры) : 0.719
Размер потока : 833 Мбайт (81%)
Аудио #1
Идентификатор : 189 (0xBD)-128 (0x80)
Формат : AC-3
Формат/Информация : Audio Coding 3
Расширение режима : CM (complete main)
Режим смешивания : DVD-Video
Продолжительность : 15 м.
Вид битрейта : Постоянный
Битрейт : 320 Кбит/сек
Каналы : 2 канала
Расположение каналов : Front: L R
Частота : 48,0 КГц
Битовая глубина : 16 бит
Метод сжатия : С потерями
Размер потока : 35,8 Мбайт (3%)
Аудио #2
Идентификатор : 189 (0xBD)-129 (0x81)
Формат : AC-3
Формат/Информация : Audio Coding 3
Расширение режима : CM (complete main)
Режим смешивания : DVD-Video
Продолжительность : 15 м.
Вид битрейта : Постоянный
Битрейт : 448 Кбит/сек
Каналы : 6 каналов
Расположение каналов : Front: L C R, Side: L R, LFE
Частота : 48,0 КГц
Битовая глубина : 16 бит
Метод сжатия : С потерями
Размер потока : 50,1 Мбайт (5%)
Аудио #3
Идентификатор : 189 (0xBD)-138 (0x8A)
Формат : DTS
Формат/Информация : Digital Theater Systems
Режим смешивания : DVD-Video
Продолжительность : 15 м.
Вид битрейта : Постоянный
Битрейт : 755 Кбит/сек
Каналы : 6 каналов
Расположение каналов : Front: L C R, Side: L R, LFE
Частота : 48,0 КГц
Битовая глубина : 24 бит
Метод сжатия : С потерями
Размер потока : 84,4 Мбайт (8%)

Скриншоты меню

     

Скриншоты фильма

               

Скриншоты доп. материалов

           
-- --
Other forum [Profile] [PM]
Similar theme
Forum Topic Author Torrent Replies Last Post
./templates/default/images/folder_dl.gif Философия, Религия, Эзотерика Вадим Зеланд | О чем не сказала Тафти (2019) [FB2, EPUB] }{@R0N
1 | 0

0 | 1374

3

2019-01-20 20:09
}{@R0N Latest
Display posts from previous:    
Reply to topic

The time now is: Today 19:16

All times are GMT + 3 Hours



You cannot post new topics in this forum
You cannot reply to topics in this forum
You cannot edit your posts in this forum
You cannot delete your posts in this forum
You cannot vote in polls in this forum
You cannot attach files in this forum
You cannot download files in this forum