Today is a free download without charge Download

Формула 1. Гран-При России. Гонка (2014) HDTVRip [H.264]

Reply to topic
 
Author
Message

Omen ®

Longevity: 6 years 8 months

Posts: 181090

Торрент-статистика

Post 12-Oct-2014 20:55

[Quote]

Формула 1. Гран-При России. Гонка (2014) - Режиссер / Телекомпания: Россия,
Год выпуска: 2014
Жанр: Спорт, авто
Комментатор: Алексей Попов, Наталья Фабричнова
Описание:
Долгожданный для всех любителей автоспорта Гран-при России "Формулы-1" начинает набирать обороты на новеньком "Сочи Автодроме" на берегу Черного моря.
Гран-при России пройдет в эти выходные, а в четверг пилоты команд собрались на автодроме, пообщались с прессой и раздали автографы всем желающим. Многие эксперты и гонщики сходятся во мнении, что трасса получилась сложной, но очень интересной. Ее длина составляет 5853,7 метра, она содержит 18 поворотов, а максимальная скорость ожидается на уровне 320 км/ч. (С)
Продолжительность: 02:12:48
Качество видео: HDTVRip
Видеокодек: MPEG-4 AVC/H.264
Битрейт видео: 1900 kb/s
Размер кадра: 704х400
Аудиокодек: AC3, 2 ch
Битрейт аудио: 192 kb/s

MI

Код:
Общее
Полное имя                               : D:\Раздачи\Ф-1. Росии. Гонка. Багга. 12.10.2014.mkv
Формат                                   : Matroska
Версия формата                           : Version 4 / Version 2
Размер файла                             : 2,01 Гбайт
Продолжительность                        : 2 ч. 12 м.
Общий поток                              : 2041 Кбит/сек
Библиотека кодирования                   : MPlayer
Видео
Идентификатор                            : 1
Формат                                   : AVC
Формат/Информация                        : Advanced Video Codec
Профиль формата                          : [url=mailto:[email protected]][email protected][/url]
Параметр CABAC формата                   : Да
Параметр ReFrames формата                : 4 кадра
Идентификатор кодека                     : V_MPEG4/ISO/AVC
Продолжительность                        : 2 ч. 12 м.
Битрейт                                  : 1900 Кбит/сек
Ширина                                   : 704 пикселя
Высота                                   : 400 пикселей
Соотношение сторон                       : 16:9
Частота кадров                           : 25,000 кадров/сек
Цветовое пространство                    : YUV
Субдискретизация насыщенности            : 4:2:0
Битовая глубина                          : 8 бит
Тип развёртки                            : Прогрессивная
Метод сжатия                             : С потерями
Бит/(Пиксели*Кадры)                      : 0.270
Размер потока                            : 2,03 Гбайт (93%)
Библиотека кодирования                   : XviD 64
Аудио
Идентификатор                            : 2
Формат                                   : AC-3
Формат/Информация                        : Audio Coding 3
Расширение режима                        : CM (complete main)
Параметр Endianness формата              : Big
Идентификатор кодека                     : A_AC3
Продолжительность                        : 2 ч. 12 м.
Вид битрейта                             : Постоянный
Битрейт                                  : 192 Кбит/сек
Каналы                                   : 2 канала
Расположение каналов                     : Front: L R
Частота                                  : 48,0 КГц
Битовая глубина                          : 16 бит
Метод сжатия                             : С потерями
Размер потока                            : 89,3 Мбайт (5%)
Язык                                     : Russian
Default                                  : Да
Forced                                   : Нет
Скриншоты:          
Other forum [Profile] [PM]
Display posts from previous:    
Reply to topic

The time now is: Today 10:21

All times are GMT + 3 Hours



You cannot post new topics in this forum
You cannot reply to topics in this forum
You cannot edit your posts in this forum
You cannot delete your posts in this forum
You cannot vote in polls in this forum
You cannot attach files in this forum
You cannot download files in this forum