Today is a free download without charge Download

Ёлки 2 (Дмитрий Киселёв, Александр Баранов, Александр Котт) [2011, Россия, комедия, DVD9] R5 «Новый Диск»

Reply to topic
 
Author
Message

voovaz ®

Gender:

Longevity: 9 years

Posts: 87

Торрент-статистика

Post 24-Jan-2012 13:51

[Quote]

-Ёлки 2-«Идём на сближение» -Страна: Россия
Студия: Базелевс Продакшн
Жанр: комедия
Год выпуска: 2011
Мировая премьера: 15 декабря 2011
Российская премьера: 15 декабря 2011, «Bazelevs Distribution»
Дата выхода DVD: 26 января 2012, «Новый Диск»
Дата выхода Blu-Ray: 9 февраля 2012, «Новый Диск»
Продолжительность: 01:36:13
Перевод: Оригинал [Лицензия]
Cубтитры: нет
Оригинальная аудиодорожка: русский-Режиссер: Дмитрий Киселёв, Александр Баранов, Александр Котт-В ролях: Сергей Светлаков, Иван Ургант, Вера Брежнева, Сергей Безруков, Владимир Меньшов, Гоша Куценко, Александр Головин, Виктор Вержбицкий, Алексей Петренко, Петр Федоров-Описание: За этот год много чего произошло, но наступит день, который всё расставит на свои места. Продолжение новогодних историй, которые происходили в жизни героев в фильме «Ёлки».-Бонусы: Фильм о фильме- -Релиз группы: -Качество: DVD9 R5
Формат: DVD-Video
Видео кодек: MPEG2
Аудио кодек: AC3
Видео: PAL 16:9 (720x576(0.651)) MPEG Video, 25,000 кадр/сек, 6748 Кбит/сек
Аудио #1: Russian (Dolby AC3, 6 ch) 448 Кбит/сек, 48,0 КГц
Аудио #2: Russian (Dolby AC3, 2 ch) 224 Кбит/сек, 48,0 КГц-
-

DVDInfo

Title:
Size: 6.55 Gb ( 6 867 358 KBytes ) - DVD-9
Enabled regions: 1, 2, 3, 4, 5, 6, 7, 8
VTS_01 :
Play Length: 00:00:15
Video: PAL 4:3 (720x576) VBR
Audio:
Not specified (Dolby AC3, 2 ch)
VTS_02 :
Play Length: 00:00:08
Video: PAL 16:9 (720x576) VBR, Auto Pan&Scan
Audio:
Not specified (Dolby AC3, 2 ch)
VTS_03 :
Play Length: 00:01:08
Video: PAL 4:3 (720x576) VBR
Audio:
Russian (Dolby AC3, 2 ch)
Russian (Dolby AC3, 2 ch)
VTS_04 :
Play Length: 01:36:13
Video: PAL 16:9 (720x576) VBR, Auto Pan&Scan
Audio:
Russian (Dolby AC3, 6 ch)
Russian (Dolby AC3, 2 ch)
VTS_05 :
Play Length: 00:26:57
Video: PAL 16:9 (720x576) VBR, Auto Pan&Scan
Audio:
Not specified (Dolby AC3, 2 ch)
Menu Video:
PAL 16:9 (720x576) VBR
Auto Letterboxed
Menu English Language Unit :
Root Menu
Chapter (PTT) Menu

MediaInfo

Общее
Полное имя : G:\Новинки 2012\Elki.2.2011.DVD9\VIDEO_TS\VTS_04_1.VOB
Формат : MPEG-PS
Размер файла : 1024 Мбайт
Продолжительность : 18 м.
Общий поток : 7571 Кбит/сек
Видео
Идентификатор : 224 (0xE0)
Формат : MPEG Video
Версия формата : Version 2
Профиль формата : [email protected]
Параметр BVOP формата : Да
Параметр матрицы формата : По умолчанию
Параметр GOP формата : M=3, N=12
Продолжительность : 18 м.
Вид битрейта : Переменный
Битрейт : 6748 Кбит/сек
Максимальный битрейт : 7800 Кбит/сек
Ширина : 720 пикселей
Высота : 576 пикселей
Соотношение сторон : 16:9
Частота кадров : 25,000 кадров/сек
Стандарт вещания : PAL
Цветовое пространство : YUV
Субдискретизация насыщенности : 4:2:0
Битовая глубина : 8 бит
Тип развёртки : Прогрессивная
Метод сжатия : С потерями
Бит/(Пиксели*Кадры) : 0.651
Размер потока : 913 Мбайт (89%)
Аудио #1
Идентификатор : 189 (0xBD)-128 (0x80)
Формат : AC-3
Формат/Информация : Audio Coding 3
Расширение режима : CM (complete main)
Режим смешивания : DVD-Video
Продолжительность : 18 м.
Вид битрейта : Постоянный
Битрейт : 448 Кбит/сек
Каналы : 6 каналов
Расположение каналов : Front: L C R, Side: L R, LFE
Частота : 48,0 КГц
Битовая глубина : 16 бит
Метод сжатия : С потерями
Размер потока : 60,6 Мбайт (6%)
Аудио #2
Идентификатор : 189 (0xBD)-129 (0x81)
Формат : AC-3
Формат/Информация : Audio Coding 3
Расширение режима : CM (complete main)
Режим смешивания : DVD-Video
Продолжительность : 18 м.
Вид битрейта : Постоянный
Битрейт : 224 Кбит/сек
Каналы : 2 канала
Расположение каналов : Front: L R
Частота : 48,0 КГц
Битовая глубина : 16 бит
Метод сжатия : С потерями
Размер потока : 30,3 Мбайт (3%)

Скриншоты меню

     

Скриншоты фильма

               

Скриншоты доп. материалов

           
-- --
Other forum [Profile] [PM]
Display posts from previous:    
Reply to topic

The time now is: Today 12:37

All times are GMT + 3 Hours



You cannot post new topics in this forum
You cannot reply to topics in this forum
You cannot edit your posts in this forum
You cannot delete your posts in this forum
You cannot vote in polls in this forum
You cannot attach files in this forum
You cannot download files in this forum