Today is a free download without charge Download

(Synthpop / Electropop) La Roux - Releases 2008-2009 (22 CD), APE (image+.cue), lossless

Reply to topic
 
Author
Message

Koralina ®

Longevity: 8 years 9 months

Posts: 994

Location: Lithuania

Торрент-статистика

Post 23-Jan-2012 19:57

[Quote]

La Roux - Releases 2008-2009 (22 CD) Жанр: Synthpop / Electropop | Релизы: 2008-2009 | Страна: UK | Аудио кодек: APE | Тип рипа: image+.cueБитрейт аудио: lossless | Общая продолжительность: 06:55:40

about La Roux

La Roux (Лару) — британский электропоп дуэт, в состав которого входят певица Элли Джексон (Elly Jackson), играющая на синтезаторе, и автор песен, продюсер Бен Лэнгмэйд (Ben Langmaid). Название группы (если верить воспоминаниям Элли) вышло из сборника детских имен, которую она извлекла из мусорной корзины: именно там она нашла для себя псевдоним La Roux (фр. — «рыжеволосая»). Дуэт исполняет электропоп с элементами инди- и фолк-рока; в числе основных влияний его участники упоминают ранних Depeche Mode, The Human League, Blancmange, Heaven 17, а также Ника Дрейка.
В ноябре 2008 года дуэт выпустил дебютный сингл Quicksand на Kitsune Music. В декабре дуэт занял пятое место в списке BBC Sound of 2009.
Второй сингл, In For The Kill вышел 16 марта 2009 года. Дабстеп-продюсер Skream сделал на песню два ремикса: один из них поднялся до #11 в iTunes Store charts. Сингл дебютировал на #11 в UK Singles Chart 22 марта 2009 года, после чего поднялся до #2. В марте 2009 года La Roux вышли в турне с Лили Аллен. 22 июня вышел третий сингл дуэта Bulletproof и тут же возглавил UK Singles Chart.
Дебютный альбом La Roux вышел 29 июня 2009 года. 21 июля он был номинирован на Mercury Music Prize, в букмекерских списках фаворитов разделив 3-5 места с Bat for Lashes и Glasvegas. Оказавшаяся (к удивлению большинства обозревателей) вне списка номинантов Лили Аллен заявила: «Я надеюсь, что победит La Roux».
-

2008 - Quicksand (Promo MCD)

Год выпуска: 2008
Лэйбл / №: Kitsuné Music / kitsune music 086
Формат диска: Maxi-Single, Promo
Производитель диска: France
Продолжительность: 15:33
Трэклист:
1 Quicksand [Original] (3:06)
2 Quicksand [autokratz Drags To Riches Mix] (4:40)
3 Quicksand [Beni's Sinking At 1.56 Mix] (4:16)
4 Quicksand [Chateau Marmont Remix] (3:32)

EAC Log

Exact Audio Copy V0.99 prebeta 5 from 4. May 2009
EAC extraction logfile from 13. February 2010, 16:50
La Roux / Quicksand (Promo MCD)
Used drive : Optiarc DVD RW AD-7170S Adapter: 2 ID: 2
Read mode : Secure
Utilize accurate stream : Yes
Defeat audio cache : Yes
Make use of C2 pointers : No
Read offset correction : 48
Overread into Lead-In and Lead-Out : No
Fill up missing offset samples with silence : Yes
Delete leading and trailing silent blocks : No
Null samples used in CRC calculations : Yes
Used interface : Installed external ASPI interface
Used output format : Internal WAV Routines
Sample format : 44.100 Hz; 16 Bit; Stereo
TOC of the extracted CD
Track | Start | Length | Start sector | End sector
---------------------------------------------------------
1 | 0:00.00 | 3:07.66 | 0 | 14090
2 | 3:07.66 | 4:42.16 | 14091 | 35256
3 | 7:50.07 | 4:18.49 | 35257 | 54655
4 | 12:08.56 | 3:32.19 | 54656 | 70574
Range status and errors
Selected range
Filename J:\torrents UPLOAD\La Roux\La Roux - 2008 - Quicksand (Promo MCD)\La Roux - 2008 - Quicksand (Promo MCD).wav
Peak level 100.0 %
Range quality 100.0 %
Test CRC CC8A6309
Copy CRC CC8A6309
Copy OK
No errors occurred
AccurateRip summary
Track 1 accurately ripped (confidence 2) [CE4909D5]
Track 2 accurately ripped (confidence 2) [C9BDA176]
Track 3 accurately ripped (confidence 2) [DB7302F7]
Track 4 accurately ripped (confidence 2) [A1FF11DB]
All tracks accurately ripped
End of status report

2009 - Quicksand (Promo CDS)

Год выпуска: 2009
Лэйбл / №: Polydor / ROUX15
Формат диска: Single, Promo
Производитель диска: UK
Продолжительность: 6:27
Трэклист:
1 Quicksand (3:06)
2 Quicksand [Instrumental] (3:21)

EAC Log

Exact Audio Copy V0.99 prebeta 5 from 4. May 2009
EAC extraction logfile from 13. February 2010, 23:02
La Roux / Quicksand (Promo CDS)
Used drive : Optiarc DVD RW AD-7170S Adapter: 2 ID: 2
Read mode : Secure
Utilize accurate stream : Yes
Defeat audio cache : Yes
Make use of C2 pointers : No
Read offset correction : 48
Overread into Lead-In and Lead-Out : No
Fill up missing offset samples with silence : Yes
Delete leading and trailing silent blocks : No
Null samples used in CRC calculations : Yes
Used interface : Installed external ASPI interface
Used output format : Internal WAV Routines
Sample format : 44.100 Hz; 16 Bit; Stereo
TOC of the extracted CD
Track | Start | Length | Start sector | End sector
---------------------------------------------------------
1 | 0:00.00 | 3:08.35 | 0 | 14134
2 | 3:08.35 | 3:21.47 | 14135 | 29256
Range status and errors
Selected range
Filename J:\torrents UPLOAD\La Roux\La Roux - 2009 - Quicksand (Promo CDS)\La Roux - 2009 - Quicksand (Promo CDS).wav
Peak level 99.9 %
Range quality 100.0 %
Test CRC 022B1DE4
Copy CRC 022B1DE4
Copy OK
No errors occurred
AccurateRip summary
Track 1 not present in database
Track 2 not present in database
None of the tracks are present in the AccurateRip database
End of status report

2009 - Quicksand (Promo CDS CD-R)

Год выпуска: 2009
Лэйбл / №: Polydor / -
Формат диска: Single, Promo, CD-R
Производитель диска: UK
Продолжительность: 25:10
Трэклист:
1 Quicksand [Original] (3:09)
2 Quicksand [Alex Metrix Remix] (6:28)
3 Quicksand [Boy 8-Bit Remix] (5:58)
4 Quicksand [Mad Decent Remix 1] (5:13)
5 Quicksand [Mad Decent Remix 2] (4:22)

EAC Log

Exact Audio Copy V0.99 prebeta 5 from 4. May 2009
EAC extraction logfile from 13. February 2010, 22:03
La Roux / Quicksand (Promo CDS CD-R)
Used drive : Optiarc DVD RW AD-7170S Adapter: 2 ID: 2
Read mode : Secure
Utilize accurate stream : Yes
Defeat audio cache : Yes
Make use of C2 pointers : No
Read offset correction : 48
Overread into Lead-In and Lead-Out : No
Fill up missing offset samples with silence : Yes
Delete leading and trailing silent blocks : No
Null samples used in CRC calculations : Yes
Used interface : Installed external ASPI interface
Used output format : Internal WAV Routines
Sample format : 44.100 Hz; 16 Bit; Stereo
TOC of the extracted CD
Track | Start | Length | Start sector | End sector
---------------------------------------------------------
1 | 0:00.00 | 3:09.52 | 0 | 14226
2 | 3:09.52 | 6:28.64 | 14227 | 43390
3 | 9:38.41 | 5:58.12 | 43391 | 70252
4 | 15:36.53 | 5:13.69 | 70253 | 93796
5 | 20:50.47 | 4:22.23 | 93797 | 113469
Range status and errors
Selected range
Filename J:\torrents UPLOAD\La Roux\La Roux - 2009 - Quicksand (Promo CDS CD-R)\La Roux - 2009 - Quicksand (Promo CDS CD-R).wav
Peak level 100.0 %
Range quality 100.0 %
Test CRC FF624B4C
Copy CRC FF624B4C
Copy OK
No errors occurred
AccurateRip summary
Track 1 not present in database
Track 2 not present in database
Track 3 not present in database
Track 4 not present in database
Track 5 not present in database
None of the tracks are present in the AccurateRip database
End of status report

2009 - Quicksand EP

Год выпуска: 2009
Лэйбл / №: Cherrytree Records / B0013014-32
Формат диска: EP
Производитель диска: US
Продолжительность: 13:15
Трэклист:
1 Quicksand [Original Version] (3:06)
2 Quicksand [Mad Descent Remix No.1] (5:07)
3 In For The Kill [Skream's Let's Get Ravey Remix] (5:02)

EAC Log

Exact Audio Copy V0.99 prebeta 5 from 4. May 2009
EAC extraction logfile from 14. February 2010, 1:46
La Roux / Quicksand EP
Used drive : Optiarc DVD RW AD-7170S Adapter: 2 ID: 2
Read mode : Secure
Utilize accurate stream : Yes
Defeat audio cache : Yes
Make use of C2 pointers : No
Read offset correction : 48
Overread into Lead-In and Lead-Out : No
Fill up missing offset samples with silence : Yes
Delete leading and trailing silent blocks : No
Null samples used in CRC calculations : Yes
Used interface : Installed external ASPI interface
Used output format : Internal WAV Routines
Sample format : 44.100 Hz; 16 Bit; Stereo
TOC of the extracted CD
Track | Start | Length | Start sector | End sector
---------------------------------------------------------
1 | 0:00.00 | 3:07.19 | 0 | 14043
2 | 3:07.19 | 5:08.53 | 14044 | 37196
3 | 8:15.72 | 5:02.36 | 37197 | 59882
Range status and errors
Selected range
Filename J:\torrents UPLOAD\La Roux\La Roux - 2009 - Quicksand EP\La Roux - 2009 - Quicksand EP.wav
Peak level 100.0 %
Range quality 99.9 %
Test CRC 4F7CB3CE
Copy CRC 4F7CB3CE
Copy OK
No errors occurred
AccurateRip summary
Track 1 accurately ripped (confidence 2) [A0C148A1]
Track 2 accurately ripped (confidence 2) [B4E69BBE]
Track 3 accurately ripped (confidence 2) [71CC8245]
All tracks accurately ripped
End of status report

2009 - In For The Kill (Promo CDS)

Год выпуска: 2009
Лэйбл / №: Polydor / ROUX2
Формат диска: Single, Promo
Производитель диска: UK
Продолжительность: 7:03
Трэклист:
1 In For The Kill [Radio Edit] (3:32)
2 In For The Kill [Instrumental] (3:31)

EAC Log

Exact Audio Copy V0.99 prebeta 5 from 4. May 2009
EAC extraction logfile from 12. April 2010, 19:19
La Roux / In For The Kill (Promo CDS)
Used drive : Optiarc DVD RW AD-7170S Adapter: 2 ID: 2
Read mode : Secure
Utilize accurate stream : Yes
Defeat audio cache : Yes
Make use of C2 pointers : No
Read offset correction : 48
Overread into Lead-In and Lead-Out : No
Fill up missing offset samples with silence : Yes
Delete leading and trailing silent blocks : No
Null samples used in CRC calculations : Yes
Used interface : Installed external ASPI interface
Used output format : Internal WAV Routines
Sample format : 44.100 Hz; 16 Bit; Stereo
TOC of the extracted CD
Track | Start | Length | Start sector | End sector
---------------------------------------------------------
1 | 0:00.00 | 3:32.17 | 0 | 15916
2 | 3:32.17 | 3:31.08 | 15917 | 31749
Range status and errors
Selected range
Filename J:\torrents UPLOAD\La Roux\La Roux - 2009 - In For The Kill (Promo CDS)\La Roux - 2009 - In For The Kill (Promo CDS).wav
Peak level 99.9 %
Range quality 100.0 %
Test CRC 725BBE5A
Copy CRC 725BBE5A
Copy OK
No errors occurred
AccurateRip summary
Track 1 not present in database
Track 2 not present in database
None of the tracks are present in the AccurateRip database
End of status report

2009 - In For The Kill (Promo CDS CD-R)

Год выпуска: 2009
Лэйбл / №: Polydor / -
Формат диска: Single, Promo
Производитель диска: UK
Продолжительность: 7:03
Трэклист:
1 In For The Kill [Half Playback] (3:31)
2 In For The Kill [Full Playback] (3:32)

EAC Log

Exact Audio Copy V0.99 prebeta 5 from 4. May 2009
EAC extraction logfile from 16. May 2010, 18:10
La Roux / In For The Kill (Promo CDS CD-R)
Used drive : Optiarc DVD RW AD-7170S Adapter: 2 ID: 2
Read mode : Secure
Utilize accurate stream : Yes
Defeat audio cache : Yes
Make use of C2 pointers : No
Read offset correction : 48
Overread into Lead-In and Lead-Out : No
Fill up missing offset samples with silence : Yes
Delete leading and trailing silent blocks : No
Null samples used in CRC calculations : Yes
Used interface : Installed external ASPI interface
Used output format : Internal WAV Routines
Sample format : 44.100 Hz; 16 Bit; Stereo
TOC of the extracted CD
Track | Start | Length | Start sector | End sector
---------------------------------------------------------
1 | 0:00.00 | 3:31.45 | 0 | 15869
2 | 3:31.45 | 3:32.22 | 15870 | 31791
Range status and errors
Selected range
Filename J:\torrents UPLOAD\La Roux\La Roux - 2009 - In For The Kill (Promo CDS CDR)\La Roux - 2009 - In For The Kill (Promo CDS CD-R).wav
Peak level 100.0 %
Range quality 100.0 %
Test CRC 826C54FE
Copy CRC 826C54FE
Copy OK
No errors occurred
AccurateRip summary
Track 1 not present in database
Track 2 not present in database
None of the tracks are present in the AccurateRip database
End of status report

2009 - In For The Kill (Lifelike Remix) (Promo CDS)

Год выпуска: 2009
Лэйбл / №: Polydor / -
Формат диска: Single, Promo, CD-R
Производитель диска: UK
Продолжительность: 6:08
Трэклист:
1 In For The Kill [Lifelike Remix] (6:08)

EAC Log

Exact Audio Copy V0.99 prebeta 5 from 4. May 2009
EAC extraction logfile from 13. February 2010, 16:20
La Roux / In For The Kill (Lifelike Remix) (Promo CDS)
Used drive : Optiarc DVD RW AD-7170S Adapter: 2 ID: 2
Read mode : Secure
Utilize accurate stream : Yes
Defeat audio cache : Yes
Make use of C2 pointers : No
Read offset correction : 48
Overread into Lead-In and Lead-Out : No
Fill up missing offset samples with silence : Yes
Delete leading and trailing silent blocks : No
Null samples used in CRC calculations : Yes
Used interface : Installed external ASPI interface
Used output format : Internal WAV Routines
Sample format : 44.100 Hz; 16 Bit; Stereo
TOC of the extracted CD
Track | Start | Length | Start sector | End sector
---------------------------------------------------------
1 | 0:00.00 | 6:08.61 | 0 | 27660
Range status and errors
Selected range
Filename J:\torrents UPLOAD\La Roux\La Roux - 2009 - In For The Kill (Lifelike Remix) (Promo CDS)\La Roux - 2009 - In For The Kill (Lifelike Remix) (Promo CDS).wav
Peak level 100.0 %
Range quality 100.0 %
Test CRC 71DE953B
Copy CRC 71DE953B
Copy OK
No errors occurred
AccurateRip summary
Track 1 not present in database
None of the tracks are present in the AccurateRip database
End of status report

2009 - In For The Kill (EP)

Год выпуска: 2009
Лэйбл / №: Kitsuné Music / KITSUNÉ CDA021
Формат диска: EP
Производитель диска: France
Продолжительность: 30:46
Трэклист:
1 In For The Kill (4:09)
2 Quicksand (3:05)
3 In For The Kill [Lifelike Remix] (6:08)
4 In For The Kill [That Doesn't Sound Like Skream's Remix] (3:25)
5 Quicksand [autoKratz Drags To Riches Remix] (4:40)
6 Quicksand [Beni's Sinking At 1.56 Mix] (4:16)
7 In For The Kill [Skream's Lets Get Ravey Remix] (5:03)

EAC Log

Exact Audio Copy V0.99 prebeta 5 from 4. May 2009
EAC extraction logfile from 14. February 2010, 1:18
La Roux / In For The Kill (EP)
Used drive : Optiarc DVD RW AD-7170S Adapter: 2 ID: 2
Read mode : Secure
Utilize accurate stream : Yes
Defeat audio cache : Yes
Make use of C2 pointers : No
Read offset correction : 48
Overread into Lead-In and Lead-Out : No
Fill up missing offset samples with silence : Yes
Delete leading and trailing silent blocks : No
Null samples used in CRC calculations : Yes
Used interface : Installed external ASPI interface
Used output format : Internal WAV Routines
Sample format : 44.100 Hz; 16 Bit; Stereo
TOC of the extracted CD
Track | Start | Length | Start sector | End sector
---------------------------------------------------------
1 | 0:00.00 | 4:09.65 | 0 | 18739
2 | 4:09.65 | 3:05.64 | 18740 | 32678
3 | 7:15.54 | 6:08.61 | 32679 | 60339
4 | 13:24.40 | 3:25.68 | 60340 | 75782
5 | 16:50.33 | 4:40.20 | 75783 | 96802
6 | 21:30.53 | 4:16.37 | 96803 | 116039
7 | 25:47.15 | 5:03.20 | 116040 | 138784
Range status and errors
Selected range
Filename J:\torrents UPLOAD\La Roux\La Roux - 2009 - In For The Kill (EP)\La Roux - 2009 - In For The Kill (EP).wav
Peak level 100.0 %
Range quality 100.0 %
Test CRC 0ABBB440
Copy CRC 0ABBB440
Copy OK
No errors occurred
AccurateRip summary
Track 1 accurately ripped (confidence 3) [2883A3FD]
Track 2 accurately ripped (confidence 3) [71C91DA5]
Track 3 accurately ripped (confidence 3) [B3A75CAC]
Track 4 accurately ripped (confidence 2) [8A8136A0]
Track 5 accurately ripped (confidence 2) [253FD1D2]
Track 6 accurately ripped (confidence 3) [937019DF]
Track 7 accurately ripped (confidence 3) [CD931EC8]
All tracks accurately ripped
End of status report

2009 - Bulletproof (Promo CDS)

Год выпуска: 2009
Лэйбл / №: Polydor / ROUX4
Формат диска: Single, Promo
Производитель диска: UK
Продолжительность: 6:53
Трэклист:
1 Bulletproof (3:27)
2 Bulletproof [Instrumental] (3:25)

EAC Log

Exact Audio Copy V0.99 prebeta 5 from 4. May 2009
EAC extraction logfile from 2. April 2010, 22:06
La Roux / Bulletproof (Promo CDS)
Used drive : Optiarc DVD RW AD-7170S Adapter: 2 ID: 2
Read mode : SecureUtilize accurate stream : YesDefeat audio cache : YesMake use of C2 pointers : No
Read offset correction : 48Overread into Lead-In and Lead-Out : NoFill up missing offset samples with silence : YesDelete leading and trailing silent blocks : NoNull samples used in CRC calculations : YesUsed interface : Installed external ASPI interface
Used output format : User Defined EncoderSelected bitrate : 128 kBit/sQuality : HighAdd ID3 tag : NoCommand line compressor : C:\Program Files\Exact Audio Copy\Lame\lame.exeAdditional command line options : -b320 -q0 %s %d
TOC of the extracted CD
Track | Start | Length | Start sector | End sector --------------------------------------------------------- 1 | 0:00.00 | 3:27.65 | 0 | 15589 2 | 3:27.65 | 3:25.56 | 15590 | 31020
Range status and errors
Selected range
Filename J:\torrents UPLOAD\La Roux\La Roux - 2009 - Bulletproof (Promo CDS)\La Roux - 2009 - Bulletproof (Promo CDS).wav
Peak level 99.9 % Range quality 100.0 % Test CRC C50B9093 Copy CRC C50B9093 Copy OK
No errors occurred
AccurateRip summary
Track 1 accurately ripped (confidence 1) [F7EAA213]Track 2 accurately ripped (confidence 1) [563E0732]
All tracks accurately ripped
End of status report

2009 - Bulletproof (Promo CDS) (ROUX7)

Год выпуска: 2009
Лэйбл / №: Polydor / ROUX7
Формат диска: Single, Promo
Производитель диска: UK
Продолжительность: 6:54
Трэклист:
1 Bulletproof [Radio Edit] (3:29)
2 Bulletproof [Instrumental] (3:25)

EAC Log

Exact Audio Copy V0.99 prebeta 5 from 4. May 2009
EAC extraction logfile from 2. April 2010, 22:06
La Roux / Bulletproof (Promo CDS)
Used drive : Optiarc DVD RW AD-7170S Adapter: 2 ID: 2
Read mode : Secure
Utilize accurate stream : Yes
Defeat audio cache : Yes
Make use of C2 pointers : No
Read offset correction : 48
Overread into Lead-In and Lead-Out : No
Fill up missing offset samples with silence : Yes
Delete leading and trailing silent blocks : No
Null samples used in CRC calculations : Yes
Used interface : Installed external ASPI interface
Used output format : User Defined Encoder
Selected bitrate : 128 kBit/s
Quality : High
Add ID3 tag : No
Command line compressor : C:\Program Files\Exact Audio Copy\Lame\lame.exe
Additional command line options : -b320 -q0 %s %d
TOC of the extracted CD
Track | Start | Length | Start sector | End sector
---------------------------------------------------------
1 | 0:00.00 | 3:27.65 | 0 | 15589
2 | 3:27.65 | 3:25.56 | 15590 | 31020
Range status and errors
Selected range
Filename J:\torrents UPLOAD\La Roux\La Roux - 2009 - Bulletproof (Promo CDS)\La Roux - 2009 - Bulletproof (Promo CDS).wav
Peak level 99.9 %
Range quality 100.0 %
Test CRC C50B9093
Copy CRC C50B9093
Copy OK
No errors occurred
AccurateRip summary
Track 1 accurately ripped (confidence 1) [F7EAA213]
Track 2 accurately ripped (confidence 1) [563E0732]
All tracks accurately ripped
End of status report

2009 - Bulletproof (Promo CDS CD-R)

Год выпуска: 2009
Лэйбл / №: Polydor / -
Формат диска: Single, Promo, CD-R
Производитель диска: UK
Продолжительность: 20:16
Трэклист:
1 Bulletproof (3:25)
2 Bulletproof [Zinc Remix] (5:48)
3 Bulletproof [Zinc Dub] (5:28)
4 Bulletproof [Tepr Remix] (5:35)

EAC Log

Exact Audio Copy V0.99 prebeta 5 from 4. May 2009
EAC extraction logfile from 30. May 2010, 17:16
La Roux / Bulletproof (Promo CDS)
Used drive : Optiarc DVD RW AD-7170S Adapter: 2 ID: 2
Read mode : Secure
Utilize accurate stream : Yes
Defeat audio cache : Yes
Make use of C2 pointers : No
Read offset correction : 48
Overread into Lead-In and Lead-Out : No
Fill up missing offset samples with silence : Yes
Delete leading and trailing silent blocks : No
Null samples used in CRC calculations : Yes
Used interface : Installed external ASPI interface
Used output format : Internal WAV Routines
Sample format : 44.100 Hz; 16 Bit; Stereo
TOC of the extracted CD
Track | Start | Length | Start sector | End sector
---------------------------------------------------------
1 | 0:00.00 | 3:29.05 | 0 | 15679
2 | 3:29.05 | 3:25.67 | 15680 | 31121
Range status and errors
Selected range
Filename J:\torrents UPLOAD\La Roux\La Roux - 2009 - Bulletproof (Promo CDS) (ROUX7)\La Roux - 2009 - Bulletproof (Promo CDS).wav
Peak level 99.9 %
Range quality 100.0 %
Test CRC 35DABDE3
Copy CRC 35DABDE3
Copy OK
No errors occurred
AccurateRip summary
Track 1 not present in database
Track 2 not present in database
None of the tracks are present in the AccurateRip database
End of status report

2009 - Bulletproof (Zinc Remix) (Promo CDS)

Год выпуска: 2009
Лэйбл / №: Polydor / -
Формат диска: Single, Promo, CD-R
Производитель диска: UK
Продолжительность: 5:48
Трэклист:
1 Bulletproof [Zinc Remix] (5:48)

EAC Log

Exact Audio Copy V0.99 prebeta 5 from 4. May 2009
EAC extraction logfile from 13. February 2010, 19:24
La Roux / Bulletproof (Promo CDS CD-R)
Used drive : Optiarc DVD RW AD-7170S Adapter: 2 ID: 2
Read mode : Secure
Utilize accurate stream : Yes
Defeat audio cache : Yes
Make use of C2 pointers : No
Read offset correction : 48
Overread into Lead-In and Lead-Out : No
Fill up missing offset samples with silence : Yes
Delete leading and trailing silent blocks : No
Null samples used in CRC calculations : Yes
Used interface : Installed external ASPI interface
Used output format : Internal WAV Routines
Sample format : 44.100 Hz; 16 Bit; Stereo
TOC of the extracted CD
Track | Start | Length | Start sector | End sector
---------------------------------------------------------
1 | 0:00.00 | 3:27.50 | 0 | 15574
2 | 3:27.50 | 5:50.59 | 15575 | 41883
3 | 9:18.34 | 5:30.21 | 41884 | 66654
4 | 14:48.55 | 5:35.49 | 66655 | 91828
Range status and errors
Selected range
Filename J:\torrents UPLOAD\La Roux\La Roux - 2009 - Bulletproof (Promo CDS CD-R)\La Roux - 2009 - Bulletproof (Promo CDS CD-R).wav
Peak level 100.0 %
Range quality 100.0 %
Test CRC 71FACC05
Copy CRC 71FACC05
Copy OK
No errors occurred
AccurateRip summary
Track 1 not present in database
Track 2 not present in database
Track 3 not present in database
Track 4 not present in database
None of the tracks are present in the AccurateRip database
End of status report

2009 - Bulletproof (Promo MCD CD-R)

Год выпуска: 2009
Лэйбл / №: Cherrytree Records / -
Формат диска: Maxi, Single, Promo, CD-R
Производитель диска: US
Продолжительность: 1:06:27
Трэклист:
1 Bulletproof [Dave Aude Cherry Radio Remix] (4:00)
2 Bulletproof [Dave Aude Club] (8:12)
3 Bulletproof [Dave Aude Club Dub] (8:12)
4 Bulletproof [Razor N Guido Vocal] (7:40)
5 Bulletproof [Razor N Guido Dub] (7:53)
6 Bulletproof [Morgan Page Remix] (7:07)
7 Bulletproof [Zinc Remix] (5:50)
8 Bulletproof [Zinc Dub] (5:30)
9 Bulletproof [Tepr TsunAimee Remix] (5:36)
10 Bulletproof [Manhattan Clique Remix] (6:22)

EAC Log

Exact Audio Copy V0.99 prebeta 5 from 4. May 2009
EAC extraction logfile from 13. February 2010, 18:01
La Roux / Bulletproof (Zinc Remix) (Promo CDS)
Used drive : Optiarc DVD RW AD-7170S Adapter: 2 ID: 2
Read mode : Secure
Utilize accurate stream : Yes
Defeat audio cache : Yes
Make use of C2 pointers : No
Read offset correction : 48
Overread into Lead-In and Lead-Out : No
Fill up missing offset samples with silence : Yes
Delete leading and trailing silent blocks : No
Null samples used in CRC calculations : Yes
Used interface : Installed external ASPI interface
Used output format : Internal WAV Routines
Sample format : 44.100 Hz; 16 Bit; Stereo
TOC of the extracted CD
Track | Start | Length | Start sector | End sector
---------------------------------------------------------
1 | 0:00.00 | 5:48.59 | 0 | 26158
Range status and errors
Selected range
Filename J:\torrents UPLOAD\La Roux\La Roux - 2009 - Bulletproof (Zinc Remix) (Promo CDS)\La Roux - 2009 - Bulletproof (Zinc Remix) (Promo CDS).wav
Peak level 100.0 %
Range quality 100.0 %
Test CRC 73903ADD
Copy CRC 73903ADD
Copy OK
No errors occurred
AccurateRip summary
Track 1 not present in database
None of the tracks are present in the AccurateRip database
End of status report

2009 - Bulletproof (Promo MCD)

Год выпуска: 2009
Лэйбл / №: Cherrytree Records / -
Формат диска: Maxi, Single, Promo
Производитель диска: US
Продолжительность: 57:01
Трэклист:
1 Bulletproof [Album Version] (3:26)
2 Bulletproof [Manhattan Clique Remix] (6:21)
3 Bulletproof [Razor N Guido Vocal] (7:37)
4 Bulletproof [Dean Coleman And Nima Nas 100 Proof Vocal] (7:47)
5 Bulletproof [Dave Aude Club] (8:08)
6 Bulletproof [Zinc Remix] (5:49)
7 Bulletproof [Morgan Page Remix] (7:04)
8 Bulletproof [Lagos Boys Choir Remix] (5:16)
9 Bulletproof [Tepr TsunAimee Remix] (5:34)

EAC Log

Exact Audio Copy V0.99 prebeta 5 from 4. May 2009
EAC extraction logfile from 13. February 2010, 21:30
La Roux / Bulletproof (Promo MCD CD-R)
Used drive : Optiarc DVD RW AD-7170S Adapter: 2 ID: 2
Read mode : Secure
Utilize accurate stream : Yes
Defeat audio cache : Yes
Make use of C2 pointers : No
Read offset correction : 48
Overread into Lead-In and Lead-Out : No
Fill up missing offset samples with silence : Yes
Delete leading and trailing silent blocks : No
Null samples used in CRC calculations : Yes
Used interface : Installed external ASPI interface
Used output format : Internal WAV Routines
Sample format : 44.100 Hz; 16 Bit; Stereo
TOC of the extracted CD
Track | Start | Length | Start sector | End sector
---------------------------------------------------------
1 | 0:00.00 | 4:00.09 | 0 | 18008
2 | 4:00.09 | 8:12.35 | 18009 | 54943
3 | 12:12.44 | 8:11.70 | 54944 | 91838
4 | 20:24.39 | 7:40.33 | 91839 | 126371
5 | 28:04.72 | 7:52.73 | 126372 | 161844
6 | 35:57.70 | 7:07.56 | 161845 | 193925
7 | 43:05.51 | 5:50.56 | 193926 | 220231
8 | 48:56.32 | 5:30.21 | 220232 | 245002
9 | 54:26.53 | 5:36.19 | 245003 | 270221
10 | 60:02.72 | 6:22.61 | 270222 | 298932
Range status and errors
Selected range
Filename J:\torrents UPLOAD\La Roux\La Roux - 2009 - Bulletproof (Promo MCD CD-R)\La Roux - 2009 - Bulletproof (Promo MCD CD-R).wav
Peak level 100.0 %
Range quality 99.9 %
Test CRC 9B45B49A
Copy CRC 9B45B49A
Copy OK
No errors occurred
AccurateRip summary
Track 1 not present in database
Track 2 not present in database
Track 3 not present in database
Track 4 not present in database
Track 5 not present in database
Track 6 not present in database
Track 7 not present in database
Track 8 not present in database
Track 9 not present in database
Track 10 not present in database
None of the tracks are present in the AccurateRip database
End of status report

2009 - Bulletproof (MCD)

Год выпуска: 2009
Лэйбл / №: Cherrytree Records / B0013222-32
Формат диска: Maxi, Single
Производитель диска: US
Продолжительность: 20:05
Трэклист:
1 Bulletproof (3:26)
2 Bulletproof [Tepr TsunAimee Remix] (5:34)
3 Bulletproof [Zinc Remix] (5:49)
4 Bulletproof [Lagos Boys Choir Remix] (5:16)

EAC Log

Exact Audio Copy V0.99 prebeta 5 from 4. May 2009
EAC extraction logfile from 13. February 2010, 20:55
La Roux / Bulletproof (Promo MCD)
Used drive : Optiarc DVD RW AD-7170S Adapter: 2 ID: 2
Read mode : Secure
Utilize accurate stream : Yes
Defeat audio cache : Yes
Make use of C2 pointers : No
Read offset correction : 48
Overread into Lead-In and Lead-Out : No
Fill up missing offset samples with silence : Yes
Delete leading and trailing silent blocks : No
Null samples used in CRC calculations : Yes
Used interface : Installed external ASPI interface
Used output format : Internal WAV Routines
Sample format : 44.100 Hz; 16 Bit; Stereo
TOC of the extracted CD
Track | Start | Length | Start sector | End sector
---------------------------------------------------------
1 | 0:00.00 | 3:27.09 | 0 | 15533
2 | 3:27.09 | 6:22.19 | 15534 | 44202
3 | 9:49.28 | 7:38.09 | 44203 | 78561
4 | 17:27.37 | 7:48.42 | 78562 | 113703
5 | 25:16.04 | 8:09.44 | 113704 | 150422
6 | 33:25.48 | 5:49.71 | 150423 | 176668
7 | 39:15.44 | 7:05.25 | 176669 | 208568
8 | 46:20.69 | 5:17.47 | 208569 | 232390
9 | 51:38.41 | 5:34.60 | 232391 | 257500
Range status and errors
Selected range
Filename J:\torrents UPLOAD\La Roux\La Roux - 2009 - Bulletproof (Promo MCD)\La Roux - 2009 - Bulletproof (Promo MCD).wav
Peak level 100.0 %
Range quality 99.7 %
Test CRC F26F5E82
Copy CRC F26F5E82
Copy OK
No errors occurred
AccurateRip summary
Track 1 not present in database
Track 2 not present in database
Track 3 not present in database
Track 4 not present in database
Track 5 not present in database
Track 6 not present in database
Track 7 not present in database
Track 8 not present in database
Track 9 not present in database
None of the tracks are present in the AccurateRip database
End of status report

2009 - La Roux

Год выпуска: 2009
Лэйбл / №: Polydor / 2703635
Формат диска: Album
Производитель диска: UK
Продолжительность: 46:39
Трэклист:
1 In For The Kill (4:08)
2 Tigerlily (3:24)
3 Quicksand (3:05)
4 Bulletproof (3:25)
5 Colourless Colour (3:28)
6 I'm Not Your Toy (3:19)
7 Cover My Eyes (4:32)
8 As If By Magic (3:51)
9 Fascination (3:41)
10 Reflections Are Protection (4:20)
11 Armour Love (5:52)
12 Growing Pains (3:26)

EAC Log

Exact Audio Copy V0.99 prebeta 5 from 4. May 2009
EAC extraction logfile from 2. April 2010, 22:37
La Roux / La Roux
Used drive : Optiarc DVD RW AD-7170S Adapter: 2 ID: 2
Read mode : Secure
Utilize accurate stream : Yes
Defeat audio cache : Yes
Make use of C2 pointers : No
Read offset correction : 48
Overread into Lead-In and Lead-Out : No
Fill up missing offset samples with silence : Yes
Delete leading and trailing silent blocks : No
Null samples used in CRC calculations : Yes
Used interface : Installed external ASPI interface
Used output format : Internal WAV Routines
Sample format : 44.100 Hz; 16 Bit; Stereo
TOC of the extracted CD
Track | Start | Length | Start sector | End sector
---------------------------------------------------------
1 | 0:00.00 | 4:08.47 | 0 | 18646
2 | 4:08.47 | 3:24.50 | 18647 | 33996
3 | 7:33.22 | 3:05.52 | 33997 | 47923
4 | 10:38.74 | 3:26.74 | 47924 | 63447
5 | 14:05.73 | 3:28.06 | 63448 | 79053
6 | 17:34.04 | 3:19.29 | 79054 | 94007
7 | 20:53.33 | 4:32.33 | 94008 | 114440
8 | 25:25.66 | 3:51.67 | 114441 | 131832
9 | 29:17.58 | 3:41.51 | 131833 | 148458
10 | 32:59.34 | 4:20.31 | 148459 | 167989
11 | 37:19.65 | 5:52.72 | 167990 | 194461
12 | 43:12.62 | 3:26.74 | 194462 | 209985
Range status and errors
Selected range
Filename J:\torrents UPLOAD\La Roux\La Roux - 2009 - La Roux\La Roux - 2009 - La Roux.wav
Peak level 99.9 %
Range quality 99.9 %
Test CRC E9372B7B
Copy CRC E9372B7B
Copy OK
No errors occurred
AccurateRip summary
Track 1 accurately ripped (confidence 134) [5170DBCC]
Track 2 accurately ripped (confidence 135) [A35153F4]
Track 3 accurately ripped (confidence 135) [E5C7B5B5]
Track 4 accurately ripped (confidence 134) [20B96400]
Track 5 accurately ripped (confidence 133) [A6DF69BF]
Track 6 accurately ripped (confidence 133) [818A2952]
Track 7 accurately ripped (confidence 133) [68180749]
Track 8 accurately ripped (confidence 132) [DD8194B1]
Track 9 accurately ripped (confidence 133) [7BD9B373]
Track 10 accurately ripped (confidence 132) [4D0DCAE2]
Track 11 accurately ripped (confidence 135) [70CC13A6]
Track 12 accurately ripped (confidence 133) [0D334775]
All tracks accurately ripped
End of status report

2009 - I'm Not Your Toy (Promo CDS)

Год выпуска: 2009
Лэйбл / №: Polydor / ROUX11
Формат диска: Single, Promo
Производитель диска: UK
Продолжительность: 6:38
Трэклист:
1 I'm Not Your Toy (3:20)
2 I'm Not Your Toy [Instrumental] (3:18)

EAC Log

Exact Audio Copy V0.99 prebeta 5 from 4. May 2009
EAC extraction logfile from 13. February 2010, 23:42
La Roux / I'm Not Your Toy (Promo CDS)
Used drive : Optiarc DVD RW AD-7170S Adapter: 2 ID: 2
Read mode : Secure
Utilize accurate stream : Yes
Defeat audio cache : Yes
Make use of C2 pointers : No
Read offset correction : 48
Overread into Lead-In and Lead-Out : No
Fill up missing offset samples with silence : Yes
Delete leading and trailing silent blocks : No
Null samples used in CRC calculations : Yes
Used interface : Installed external ASPI interface
Used output format : Internal WAV Routines
Sample format : 44.100 Hz; 16 Bit; Stereo
TOC of the extracted CD
Track | Start | Length | Start sector | End sector
---------------------------------------------------------
1 | 0:00.00 | 3:20.07 | 0 | 15006
2 | 3:20.07 | 3:18.20 | 15007 | 29876
Range status and errors
Selected range
Filename J:\torrents UPLOAD\La Roux\La Roux - 2009 - I'm Not Your Toy (Promo CDS)\La Roux - 2009 - I'm Not Your Toy (Promo CDS).wav
Peak level 99.9 %
Range quality 100.0 %
Test CRC A0E6B450
Copy CRC A0E6B450
Copy OK
No errors occurred
AccurateRip summary
Track 1 not present in database
Track 2 not present in database
None of the tracks are present in the AccurateRip database
End of status report

2009 - I'm Not Your Toy (Promo MCD)

Год выпуска: 2009
Лэйбл / №: Polydor / 2730724
Формат диска: Maxi-Single, Promo
Производитель диска: Germany
Продолжительность: 19:47
Трэклист:
1 I'm Not Your Toy (3:19)
2 I'm Not Your Toy [Jack Beats Remix] (5:37)
3 I'm Not Your Toy [DatA Remix] (5:16)
4 I'm Not Your Toy [Nero Remix] (5:34)

EAC Log

Exact Audio Copy V0.99 prebeta 5 from 4. May 2009
EAC extraction logfile from 6. May 2010, 18:35
La Roux / I'm Not Your Toy (Promo MCD)
Used drive : Optiarc DVD RW AD-7170S Adapter: 2 ID: 2
Read mode : Secure
Utilize accurate stream : Yes
Defeat audio cache : Yes
Make use of C2 pointers : No
Read offset correction : 48
Overread into Lead-In and Lead-Out : No
Fill up missing offset samples with silence : Yes
Delete leading and trailing silent blocks : No
Null samples used in CRC calculations : Yes
Used interface : Installed external ASPI interface
Used output format : Internal WAV Routines
Sample format : 44.100 Hz; 16 Bit; Stereo
TOC of the extracted CD
Track | Start | Length | Start sector | End sector
---------------------------------------------------------
1 | 0:00.00 | 3:19.29 | 0 | 14953
2 | 3:19.29 | 5:37.22 | 14954 | 40250
3 | 8:56.51 | 5:16.27 | 40251 | 63977
4 | 14:13.03 | 5:34.17 | 63978 | 89044
Range status and errors
Selected range
Filename J:\torrents UPLOAD\La Roux\La Roux - 2009 - I'm Not Your Toy (Promo MCD)\La Roux - 2009 - I'm Not Your Toy (Promo MCD).wav
Peak level 100.0 %
Range quality 100.0 %
Test CRC C07CDAB9
Copy CRC C07CDAB9
Copy OK
No errors occurred
AccurateRip summary
Track 1 not present in database
Track 2 not present in database
Track 3 not present in database
Track 4 not present in database
None of the tracks are present in the AccurateRip database
End of status report

2009 - I'm Not Your Toy (Data Remix) (Promo CDS)

Год выпуска: 2009
Лэйбл / №: Polydor / -
Формат диска: Single, Promo, CD-R
Производитель диска: UK
Продолжительность: 7:20
Трэклист:
1 I'm Not Your Toy [Data Remix - Radio Edit] (3:41)
2 I'm Not Your Toy [Data Remix - Radio Edit] (3:40)

EAC Log

Exact Audio Copy V0.99 prebeta 5 from 4. May 2009
EAC extraction logfile from 13. February 2010, 22:19
La Roux / I'm Not Your Toy (Data Remix) (Promo CDS)
Used drive : Optiarc DVD RW AD-7170S Adapter: 2 ID: 2
Read mode : Secure
Utilize accurate stream : Yes
Defeat audio cache : Yes
Make use of C2 pointers : No
Read offset correction : 48
Overread into Lead-In and Lead-Out : No
Fill up missing offset samples with silence : Yes
Delete leading and trailing silent blocks : No
Null samples used in CRC calculations : Yes
Used interface : Installed external ASPI interface
Used output format : Internal WAV Routines
Sample format : 44.100 Hz; 16 Bit; Stereo
TOC of the extracted CD
Track | Start | Length | Start sector | End sector
---------------------------------------------------------
1 | 0:00.00 | 3:40.72 | 0 | 16571
2 | 3:40.72 | 3:40.57 | 16572 | 33128
Range status and errors
Selected range
Filename J:\torrents UPLOAD\La Roux\La Roux - 2009 - I'm Not Your Toy (Data Remix) (Promo CDS)\La Roux - 2009 - I'm Not Your Toy (Data Remix) (Promo CDS).wav
Peak level 100.0 %
Range quality 100.0 %
Test CRC D831E0AC
Copy CRC D831E0AC
Copy OK
No errors occurred
AccurateRip summary
Track 1 not present in database
Track 2 not present in database
None of the tracks are present in the AccurateRip database
End of status report

2009 - I'm Not Your Toy (Jack Beats Remix - Edit) (Promo CDS)

Год выпуска: 2009
Лэйбл / №: Polydor / -
Формат диска: Single, Promo, CD-R
Производитель диска: UK
Продолжительность: 3:48
Трэклист:
1 I'm Not Your Toy [Jack Beats Remix - Edit] (3:48)

EAC Log

Exact Audio Copy V0.99 prebeta 5 from 4. May 2009
EAC extraction logfile from 13. February 2010, 22:42
La Roux / I'm Not Your Toy (Jack Beats Remix - Edit) (Promo CDS)
Used drive : Optiarc DVD RW AD-7170S Adapter: 2 ID: 2
Read mode : Secure
Utilize accurate stream : Yes
Defeat audio cache : Yes
Make use of C2 pointers : No
Read offset correction : 48
Overread into Lead-In and Lead-Out : No
Fill up missing offset samples with silence : Yes
Delete leading and trailing silent blocks : No
Null samples used in CRC calculations : Yes
Used interface : Installed external ASPI interface
Used output format : Internal WAV Routines
Sample format : 44.100 Hz; 16 Bit; Stereo
TOC of the extracted CD
Track | Start | Length | Start sector | End sector
---------------------------------------------------------
1 | 0:00.00 | 3:48.67 | 0 | 17166
Range status and errors
Selected range
Filename J:\torrents UPLOAD\La Roux\La Roux - 2009 - I'm Not Your Toy (Jack Beats Remix - Edit) (Promo CDS)\La Roux - 2009 - I'm Not Your Toy (Jack Beats Remix - Edit) (Promo CDS).wav
Peak level 98.8 %
Range quality 100.0 %
Test CRC 786C550B
Copy CRC 786C550B
Copy OK
No errors occurred
AccurateRip summary
Track 1 not present in database
None of the tracks are present in the AccurateRip database
End of status report

2009 - I'm Not Your Toy (Promo CDS CD-R)

Год выпуска: 2009
Лэйбл / №: Polydor / -
Формат диска: Single, Promo, CD-R
Производитель диска: UK
Продолжительность: 14:11
Трэклист:
1 I'm Not Your Toy (3:19)
2 I'm Not Your Toy [Jack Beats Remix] (5:37)
3 I'm Not Your Toy [DatA Remix] (5:15)

EAC Log

Exact Audio Copy V0.99 prebeta 5 from 4. May 2009
EAC extraction logfile from 13. February 2010, 17:10
La Roux / I'm Not Your Toy (Promo CDS CD-R)
Used drive : Optiarc DVD RW AD-7170S Adapter: 2 ID: 2
Read mode : Secure
Utilize accurate stream : Yes
Defeat audio cache : Yes
Make use of C2 pointers : No
Read offset correction : 48
Overread into Lead-In and Lead-Out : No
Fill up missing offset samples with silence : Yes
Delete leading and trailing silent blocks : No
Null samples used in CRC calculations : Yes
Used interface : Installed external ASPI interface
Used output format : Internal WAV Routines
Sample format : 44.100 Hz; 16 Bit; Stereo
TOC of the extracted CD
Track | Start | Length | Start sector | End sector
---------------------------------------------------------
1 | 0:00.00 | 3:19.29 | 0 | 14953
2 | 3:19.29 | 5:37.28 | 14954 | 40256
3 | 8:56.57 | 5:15.52 | 40257 | 63933
Range status and errors
Selected range
Filename J:\torrents UPLOAD\La Roux\La Roux - 2009 - I'm Not Your Toy (Promo CDS CD-R)\La Roux - 2009 - I'm Not Your Toy (Promo CDS CD-R).wav
Peak level 100.0 %
Range quality 100.0 %
Test CRC 4E408021
Copy CRC 4E408021
Copy OK
No errors occurred
AccurateRip summary
Track 1 not present in database
Track 2 not present in database
Track 3 not present in database
None of the tracks are present in the AccurateRip database
End of status report

Various Artists - Universal Music Australia (W.C 5 October 2009) (Promo CD-R)

Год выпуска: 2009
Лэйбл / №: Universal Music Australia / -
Формат диска: Compilation, Promo, CD-R
Производитель диска: Australia
Продолжительность: 21:43
Трэклист:
1 Orianthi - According To You (3:21)
2 Ronan Keating - Stay (4:38)
3 Jesse McCartney feat. T-Pain - Body Language (3:45)
4 Jay Sean feat. Lil Wayne - Down (3:17)
5 La Roux - Bulletproof (3:29)
6 Colibe Caillat - Fallin For You [Jason Nevins Remix] (3:14)

EAC Log

Exact Audio Copy V0.99 prebeta 5 from 4. May 2009
EAC extraction logfile from 14. February 2010, 0:57
Various / Universal Music Australia (W.C 5 October 2009) (Promo CD-R)
Used drive : Optiarc DVD RW AD-7170S Adapter: 2 ID: 2
Read mode : Secure
Utilize accurate stream : Yes
Defeat audio cache : Yes
Make use of C2 pointers : No
Read offset correction : 48
Overread into Lead-In and Lead-Out : No
Fill up missing offset samples with silence : Yes
Delete leading and trailing silent blocks : No
Null samples used in CRC calculations : Yes
Used interface : Installed external ASPI interface
Used output format : Internal WAV Routines
Sample format : 44.100 Hz; 16 Bit; Stereo
TOC of the extracted CD
Track | Start | Length | Start sector | End sector
---------------------------------------------------------
1 | 0:00.00 | 3:21.11 | 0 | 15085
2 | 3:21.11 | 4:38.16 | 15086 | 35951
3 | 7:59.27 | 3:45.63 | 35952 | 52889
4 | 11:45.15 | 3:17.55 | 52890 | 67719
5 | 15:02.70 | 3:28.73 | 67720 | 83392
6 | 18:31.68 | 3:14.07 | 83393 | 97949
Range status and errors
Selected range
Filename J:\torrents UPLOAD\La Roux\Various Artists - Universal Music Australia (W.C 5 October 2009) (Promo CD-R)\Various Artists - 2009 - Universal Music Australia (W.C 5 October 2009) (Promo CD-R).wav
Peak level 100.0 %
Range quality 99.9 %
Test CRC DC7871D5
Copy CRC DC7871D5
Copy OK
No errors occurred
AccurateRip summary
Track 1 not present in database
Track 2 not present in database
Track 3 not present in database
Track 4 not present in database
Track 5 not present in database
Track 6 not present in database
None of the tracks are present in the AccurateRip database
End of status report

_________________
Other forum [Profile] [PM]
Display posts from previous:    
Reply to topic

The time now is: Today 23:07

All times are GMT + 3 Hours



You cannot post new topics in this forum
You cannot reply to topics in this forum
You cannot edit your posts in this forum
You cannot delete your posts in this forum
You cannot vote in polls in this forum
You cannot attach files in this forum
You cannot download files in this forum