Today is a free download without charge Download

Легенда о МорДу / The Legend of Mor'du (Брайан Ларсен/Brian Larsen)[2012.,мультфильм, короткометражка, семейный, фэнтези] BDRemux [1080p]

Reply to topic
 
Author
Message

sashau ®

Gender:

Longevity: 8 years 11 months

Posts: 3497

Торрент-статистика

Post 05-Oct-2014 06:25

[Quote]

Легенда о МорДу / The Legend of Mor'du - Год выпуска: 2012
Производство: США
Жанр: Мультфильм, Драма, Мелодрама, Приключения, Семейный, Музыка
Режиссер: Брайан Ларсен
Актеры: Джули Уолтерс, Стив Пурселл, Каллум О’Нилл
Описание фильма: Легенда о королевстве МорДу рассказанная ведьмой из мультфильма «Храбрая сердцем»
Перевод: Дублированный, Одноголосый, Двухголосый
Язык субтитров: Русские (BD CEE), Русские (-Доцент-), Украинские (BD CEE), English, English (SDH), French, Spanish
Вид субтитров: Вшитые, отключаемые

Дата мировой премьеры: 5 декабря 2012
Продолжительность: 00:06:52
Качество видео: BDRemux
Видео: MPEG-4 AVC/H.264, 17855 Кбит/с, 1920x1080
Аудио 1: Русский 48 kHz, AC3, 3/2 (L,C,R,l,r) + LFE ch, ~640 kbps |Dub|
Аудио 2: Русский 48 kHz, AC3, 3/2 (L,C,R,l,r) + LFE ch, ~640 kbps |Одноголосый закадровый (-Доцент-)|
Аудио 3: Русский 48 kHz, AC3, 3/2 (L,C,R,l,r) + LFE ch, ~640 kbps |Двухголосый закадровый (РГ Мультфильмы) kis-natella и rtys|
Аудио 4: Английский 48 kHz, AC3, 3/2 (L,C,R,l,r) + LFE ch, ~640 kbps |Original|

MediaInfo

Формат : Matroska
Версия формата : Version 2
Размер файла : 1003 Мбайт
Продолжительность : 6 м. 51 с.
Режим общего битрейта : Переменный
Общий поток : 20,4 Мбит/сек
Дата кодирования : UTC 2012-11-16 17:15:50
Программа кодирования : mkvmerge v4.0.0 ('The Stars were mine') built on Jun 6 2010 16:18:42
Библиотека кодирования : libebml v1.0.0 + libmatroska v1.0.0
Видео
Идентификатор : 1
Формат : AVC
Формат/Информация : Advanced Video Codec
Профиль формата : [url=mailto:[email protected]][email protected][/url]
Параметр CABAC формата : Да
Параметр ReFrames формата : 4 кадра
Идентификатор кодека : V_MPEG4/ISO/AVC
Продолжительность : 6 м. 51 с.
Вид битрейта : Переменный
Битрейт : 17,5 Мбит/сек
Максимальный битрейт : 40,0 Мбит/сек
Ширина : 1920 пикселей
Высота : 1080 пикселей
Соотношение сторон : 16:9
Режим частоты кадров : Постоянный
Частота кадров : 23,976 кадра/сек
Цветовое пространство : YUV
Субдискретизация насыщенности : 4:2:0
Битовая глубина : 8 бит
Тип развёртки : Прогрессивная
Бит/(Пиксели*Кадры) : 0.351
Размер потока : 857 Мбайт (85%)
Заголовок : NTSC, 1920x1080, Untached, ~17,9 Mbps, BDRemux 1080p - tRuAVC & Multfilmy [DFCbit]
Язык : English
Default : Да
Forced : Нет
Аудио #1
Идентификатор : 2
Формат : AC-3
Формат/Информация : Audio Coding 3
Расширение режима : CM (complete main)
Параметр Endianness формата : Big
Идентификатор кодека : A_AC3
Продолжительность : 6 м. 51 с.
Вид битрейта : Постоянный
Битрейт : 640 Кбит/сек
Каналы : 6 каналов
Расположение каналов : Front: L C R, Side: L R, LFE
Частота : 48,0 КГц
Битовая глубина : 16 бит
Метод сжатия : С потерями
Размер потока : 31,4 Мбайт (3%)
Заголовок : AC3, 6 ch, 48 kHz, 640 kbps, Dubbing [BD CEE]
Язык : Russian
Default : Да
Forced : Нет
Аудио #2
Идентификатор : 3
Формат : AC-3
Формат/Информация : Audio Coding 3
Расширение режима : CM (complete main)
Параметр Endianness формата : Big
Идентификатор кодека : A_AC3
Продолжительность : 6 м. 51 с.
Вид битрейта : Постоянный
Битрейт : 640 Кбит/сек
Каналы : 6 каналов
Расположение каналов : Front: L C R, Side: L R, LFE
Частота : 48,0 КГц
Битовая глубина : 16 бит
Метод сжатия : С потерями
Размер потока : 31,4 Мбайт (3%)
Заголовок : AC3, 6 ch, 48 kHz, 640 kbps, VO [-Доцент-]
Язык : Russian
Default : Нет
Forced : Нет
Аудио #3
Идентификатор : 4
Формат : AC-3
Формат/Информация : Audio Coding 3
Расширение режима : CM (complete main)
Параметр Endianness формата : Big
Идентификатор кодека : A_AC3
Продолжительность : 6 м. 51 с.
Вид битрейта : Постоянный
Битрейт : 640 Кбит/сек
Каналы : 6 каналов
Расположение каналов : Front: L C R, Side: L R, LFE
Частота : 48,0 КГц
Битовая глубина : 16 бит
Метод сжатия : С потерями
Размер потока : 31,4 Мбайт (3%)
Заголовок : AC3, 6 ch, 48 kHz, 640 kbps, DVO [РГ Мультфильмы]
Язык : Russian
Default : Нет
Forced : Нет
Аудио #4
Идентификатор : 5
Формат : AC-3
Формат/Информация : Audio Coding 3
Расширение режима : CM (complete main)
Параметр Endianness формата : Big
Идентификатор кодека : A_AC3
Продолжительность : 6 м. 51 с.
Вид битрейта : Постоянный
Битрейт : 640 Кбит/сек
Каналы : 6 каналов
Расположение каналов : Front: L C R, Side: L R, LFE
Частота : 48,0 КГц
Битовая глубина : 16 бит
Метод сжатия : С потерями
Размер потока : 31,4 Мбайт (3%)
Заголовок : AC3, 6 ch, 48 kHz, 640 kbps, Original
Язык : English
Default : Нет
Forced : Нет
Текст #1
Идентификатор : 6
Формат : UTF-8
Идентификатор кодека : S_TEXT/UTF8
Идентификатор кодека/Информация : UTF-8 Plain Text
Заголовок : SRT, Full [BD CEE]
Язык : Russian
Default : Нет
Forced : Нет
Текст #2
Идентификатор : 7
Формат : UTF-8
Идентификатор кодека : S_TEXT/UTF8
Идентификатор кодека/Информация : UTF-8 Plain Text
Заголовок : SRT, Full [-Доцент-]
Язык : Russian
Default : Нет
Forced : Нет
Текст #3
Идентификатор : 8
Формат : UTF-8
Идентификатор кодека : S_TEXT/UTF8
Идентификатор кодека/Информация : UTF-8 Plain Text
Заголовок : SRT, Full [BD CEE]
Язык : Ukrainian
Default : Нет
Forced : Нет
Текст #4
Идентификатор : 9
Формат : UTF-8
Идентификатор кодека : S_TEXT/UTF8
Идентификатор кодека/Информация : UTF-8 Plain Text
Заголовок : SRT, Full
Язык : English
Default : Нет
Forced : Нет
Текст #5
Идентификатор : 10
Формат : UTF-8
Идентификатор кодека : S_TEXT/UTF8
Идентификатор кодека/Информация : UTF-8 Plain Text
Заголовок : SRT, (SDH)
Язык : English
Default : Нет
Forced : Нет
Текст #6
Идентификатор : 11
Формат : UTF-8
Идентификатор кодека : S_TEXT/UTF8
Идентификатор кодека/Информация : UTF-8 Plain Text
Заголовок : SRT, Full
Язык : French
Default : Нет
Forced : Нет
Текст #7
Идентификатор : 12
Формат : UTF-8
Идентификатор кодека : S_TEXT/UTF8
Идентификатор кодека/Информация : UTF-8 Plain Text
Заголовок : SRT, Full
Язык : Spanish
Default : Нет
Forced : Нет
Меню
00:00:00.000 : en:Chapter 1
00:00:50.967 : en:Chapter 2
00:02:16.302 : en:Chapter 3
00:04:07.288 : en:Chapter 4
00:05:37.545 : en:Chapter 5
Скриншоты:        
Other forum [Profile] [PM]

Dracula

Longevity: 7 years 1 month

Posts: 11387

Торрент-статистика

Post 05-Oct-2014 09:51 (after 3 hours)

Топик был перенесен из форума Мультфильмы (HD) в форум Мультфильмы


Геннадич
 
Similar theme
Forum Topic Author Torrent Replies Last Post
./templates/default/images/folder_dl.gif Зарубежные сериалы Легендарный квест: Пир ворона / Мистический квест: Пир ворона / Mythic Quest: Raven's Banquet (2020) WEB-DLRip [H.264/1080p] (сезон 1, серии 1-9 из 9) LostFilm Soldat_5
1 | 0

0 | 3623

1

2020-03-18 14:33
Soldat_5 Latest
Display posts from previous:    
Reply to topic

The time now is: Today 07:12

All times are GMT + 3 Hours



You cannot post new topics in this forum
You cannot reply to topics in this forum
You cannot edit your posts in this forum
You cannot delete your posts in this forum
You cannot vote in polls in this forum
You cannot attach files in this forum
You cannot download files in this forum