Today is a free download without charge Download

World of Tanks в 3Д / 3D [2014, Игра, HDrip-AVC] Half SideBySide / Горизонтальная анаморфная стереопара

Reply to topic
 
Author
Message

Omen ®

Longevity: 8 years 8 months

Posts: 181087

Торрент-статистика

Post 04-Oct-2014 17:57

[Quote]

World of Tanks в 3D
Год выпуска: 2014
Страна: Россия/Белоруссия
Жанр: Игра
Продолжительность: 00:06:56
Перевод: Не требуется
Описание: Захотелось поделиться, как выглядит многими любимая игра в 3D.
Дополнительная информация по релизу:
Если интересует, моё оборудование:
Монитор ASUS VG278H
i7 2600
2x 4 GB DDR3 PC3-10700
2x ASUS GTX670-DC20G-2GD5 (SLI)
z77x-up7 Gigabyte
RAID HDD 3T SATA + 60GB SSD
Записывал в NVIDIA ShadowPlay
Качество: HDrip
Контейнер: MP4
Формат 3D: Half SideBySide / Горизонтальная анаморфная стереопара
Порядок ракурсов: левый ракурс первый
Видео кодек: AVC
Аудио кодек: AAC
Видео: 1920x1080 / 28.6 МБит/сек / 29.970 fps
Аудио: Русский / AAC / 2 ch / 100 Kbps / 48 KHz
Субтитры: отсутствуют

MediaInfo

General
Complete name : D:\Fraps\Videos\World of Tanks\World of Tanks 09.27.2014 - 02.17.46.01.mp4
Format : MPEG-4
Format profile : Base Media / Version 2
Codec ID : mp42
File size : 1.39 GiB
Duration : 6mn 56s
Overall bit rate : 28.6 Mbps
Video
ID : 1
Format : AVC
Format/Info : Advanced Video Codec
Format profile : [email protected]
Format settings, CABAC : Yes
Format settings, ReFrames : 1 frame
Format settings, GOP : M=1, N=30
Codec ID : avc1
Codec ID/Info : Advanced Video Coding
Duration : 6mn 56s
Source duration : 6mn 56s
Bit rate mode : Variable
Bit rate : 28.5 Mbps
Width : 1 920 pixels
Height : 1 080 pixels
Display aspect ratio : 16:9
Frame rate mode : Variable
Frame rate : 29.970 fps
Original frame rate : 30.000 fps
Minimum frame rate : 16.713 fps
Maximum frame rate : 30.928 fps
Standard : PAL
Color space : YUV
Chroma subsampling : 4:2:0
Bit depth : 8 bits
Scan type : Progressive
Bits/(Pixel*Frame) : 0.459
Stream size : 1.38 GiB (100%)
Source stream size : 1.38 GiB (100%)
mdhd_Duration : 416131
Color primaries : BT.601 NTSC
Transfer characteristics : BT.470 System M
Matrix coefficients : BT.601
Audio
ID : 2
Format : AAC
Format/Info : Advanced Audio Codec
Format profile : LC
Codec ID : 40
Duration : 6mn 56s
Source duration : 6mn 56s
Bit rate mode : Constant
Bit rate : 100 Kbps
Nominal bit rate : 192 Kbps
Channel(s) : 2 channels
Channel positions : Front: L R
Sampling rate : 48.0 KHz
Compression mode : Lossy
Stream size : 4.98 MiB (0%)
Source stream size : 4.98 MiB (0%)
mdhd_Duration : 416060

Скриншоты



Other forum [Profile] [PM]
Display posts from previous:    
Reply to topic

The time now is: Today 04:42

All times are GMT + 3 Hours



You cannot post new topics in this forum
You cannot reply to topics in this forum
You cannot edit your posts in this forum
You cannot delete your posts in this forum
You cannot vote in polls in this forum
You cannot attach files in this forum
You cannot download files in this forum