Today is a free download without charge Download

Стиляги (Валерий Тодоровский / Valeri Todorovsky) [2008, Россия, комедия, драма, мюзикл, BDRip 720p] Original Rus

Reply to topic
 
Author
Message

Omen ®

Longevity: 8 years 10 months

Posts: 181086

Торрент-статистика

Post 03-Oct-2014 23:00

[Quote]

Стиляги
Страна: Россия
Жанр: комедия, драма, мюзикл
Год выпуска: 2008
Продолжительность: 02:16:24
Перевод: Не требуется
Cубтитры: нет
Оригинальная аудиодорожка: русский
Режиссер: Валерий Тодоровский / Valeri Todorovsky
В ролях:
Оксана Акиньшина, Антон Шагин, Сергей Гармаш, Алексей Горбунов, Евгения Хиривская, София Лебедева, Максим Матвеев, Мария Мина, Олег Пангсепп, Максим Пешков, Ирина Розанова, Михаил Сиворин, Александра Стрельчина, Евгения Суворкина, Екатерина Вилкова, Эльвира Волошина, Игорь Войнаровский, Олег Янковский, Леонид Ярмольник, Алеся Пуховая, Сергей Ларин, Александр Стефанцов, Людмила Соловьева
Описание:
Люди в строгих костюмах с одинаковыми лицами стройно маршируют к светлому будущему. Шаг влево, шаг вправо – запрещены. Эй, народ! Жизнь слишком хороша, чтобы провести ее в унылом однообразии! Пусть у каждого будет свой стиль!
Стиляги – люди, которые даже в мире, полном суровых запретов и единых правил, не боятся быть свободными! Те, кто хочет по-своему одеваться, танцевать, разговаривать и любить! Кто знает толк в настоящей музыке, умеет смеяться, наслаждается жизнью на полную катушку! Для кого каждый новый день – это весёлый праздник!
Мэлс – примерный комсомолец, всегда готовый шагать в ногу, осуждать и усмирять несогласных. Он живет как все и думает, что счастлив. Пока однажды не сталкивается с миром стиляг – непонятным, опасным и манящим. Здесь носят одежду сногсшибательных расцветок. Танцуют под неположенную музыку. В этом мире самые красивые девушки! И среди них – королева тусовки: ослепительная, недоступная, дерзкая Полли-Польза. Та самая, ради которой Мэлс решится стать другим. Будет разгружать по ночам вагоны, чтобы купить цветастые брюки-дудочки. Научится танцевать буги и играть на саксофоне. И вот стиляга Мэл – шикарный парень, музыкант и танцор – вместе с новыми друзьями хиляет по Броду и играет джаз. Удастся ли теперь завоевать любовь Пользы? И не пожалеет ли Мэл когда-нибудь о своем выборе?
Сэмпл: http://multi-up.com/1003584
Тип релиза: BDRip 720p
Контейнер: MKV
Видео: 1280x548 (2.35:1), / 23.976 fps, AVC, 7200 Кбит/сек
Аудио: Russian: 48 kHz, AC3, 3/2 (L,C,R,l,r) + LFE ch, ~448.00 kbps

MediaInfo

Общее
Уникальный идентификатор : 291315348533403836385006700711961668752 (0xDB294B98C807BCD87521E46D4F1BAC90)
Полное имя : /Users/Alex/Movies/Stilyagi_2008_BDrip720p.mkv
Формат : Matroska
Версия формата : Version 4 / Version 2
Размер файла : 7,29 Гбайт
Продолжительность : 2 ч. 16 м.
Общий поток : 7649 Кбит/сек
Дата кодирования : UTC 2014-10-03 18:46:57
Программа кодирования : mkvmerge v5.9.0 ('On The Loose') built on Dec 25 2012 14:02:02
Библиотека кодирования : libebml v1.3.0 + libmatroska v1.4.0
Видео
Идентификатор : 1
Формат : AVC
Формат/Информация : Advanced Video Codec
Профиль формата : [email protected]
Параметр CABAC формата : Да
Параметр ReFrames формата : 8 кадров
Идентификатор кодека : V_MPEG4/ISO/AVC
Продолжительность : 2 ч. 16 м.
Битрейт : 7200 Кбит/сек
Ширина : 1280 пикселей
Высота : 548 пикселей
Соотношение сторон : 2,35:1
Режим частоты кадров : Постоянный
Частота кадров : 23,976 кадра/сек
Цветовое пространство : YUV
Субдискретизация насыщенности : 4:2:0
Битовая глубина : 8 бит
Тип развёртки : Прогрессивная
Бит/(Пиксели*Кадры) : 0.428
Размер потока : 6,72 Гбайт (92%)
Заголовок : Стиляги (Валерий Тодоровский) 2008
Библиотека кодирования : x264 core 130 r2273 b3065e6
Настройки программы : cabac=1 / ref=8 / deblock=1:-3:-3 / analyse=0x3:0x133 / me=umh / subme=9 / psy=1 / psy_rd=1.00:0.00 / mixed_ref=1 / me_range=32 / chroma_me=1 / trellis=2 / 8x8dct=1 / cqm=0 / deadzone=21,11 / fast_pskip=1 / chroma_qp_offset=-2 / threads=6 / lookahead_threads=1 / sliced_threads=0 / nr=0 / decimate=1 / interlaced=0 / bluray_compat=0 / constrained_intra=0 / bframes=6 / b_pyramid=2 / b_adapt=2 / b_bias=0 / direct=3 / weightb=1 / open_gop=0 / weightp=2 / keyint=240 / keyint_min=24 / scenecut=40 / intra_refresh=0 / rc_lookahead=60 / rc=2pass / mbtree=1 / bitrate=7200 / ratetol=1.0 / qcomp=0.60 / qpmin=0 / qpmax=69 / qpstep=4 / cplxblur=20.0 / qblur=0.5 / vbv_maxrate=62500 / vbv_bufsize=78125 / nal_hrd=none / ip_ratio=1.40 / aq=1:1.00
Язык : Russian
Default : Да
Forced : Нет
Основные цвета : BT.709
Характеристики трансфера : BT.709
Коэффициенты матрицы : BT.709
Аудио
Идентификатор : 2
Формат : AC-3
Формат/Информация : Audio Coding 3
Расширение режима : CM (complete main)
Параметр Endianness формата : Big
Идентификатор кодека : A_AC3
Продолжительность : 2 ч. 16 м.
Вид битрейта : Постоянный
Битрейт : 448 Кбит/сек
Каналы : 6 каналов
Расположение каналов : Front: L C R, Side: L R, LFE
Частота : 48,0 КГц
Битовая глубина : 16 бит
Метод сжатия : С потерями
Размер потока : 437 Мбайт (6%)
Заголовок : AC3-5.1
Язык : Russian
Default : Да
Forced : Нет

Скриншоты

Other forum [Profile] [PM]
Display posts from previous:    
Reply to topic

The time now is: Today 21:50

All times are GMT + 3 Hours



You cannot post new topics in this forum
You cannot reply to topics in this forum
You cannot edit your posts in this forum
You cannot delete your posts in this forum
You cannot vote in polls in this forum
You cannot attach files in this forum
You cannot download files in this forum