Today is a free download without charge Download

Три богатыря и Шамаханская царица (Сергей Глезин) [2010, Приключения, DVDRip]

Reply to topic
 
Author
Message

Omen ®

Longevity: 7 years 11 months

Posts: 181087

Торрент-статистика

Post 03-Oct-2014 23:00

[Quote]

Три богатыря и Шамаханская царица
Страна: Россия
Жанр: Приключения
Продолжительность: 01:13:28
Год выпуска: 2010
Перевод: Не требуется
Русские субтитры: нет
Режиссёр: Сергей Глезин
Описание: Легендарная Шамаханская царица, которая сводила с ума многих царей и простых смертных, положила свой глаз и на Киевского князя. Тот заболел любовью странной по ней. Но чтобы доставить в целости и сохранности эту чудо-богиню в Киев-Град, срочно из отпуска вызывают всех троих, уже знакомых нам, богатырей: Алёшу Поповича, Добрыню Никитича и Илью Муромца. Теперь троица должна решить, как быть дальше? Вроде бы и слухи о царице ходят нелестные, и князя жаль.
Семпл: https://www.sendspace.com/file/0m9mog
Качество: DVDRip
Формат: DVD-video
Видео: XVID; 1568 Кбит/сек; 720х576 (16:9); 25,000 кадров/сек
Аудио: AC-3; 448 Кбит/сек; 6 каналов; 48,0 КГц
Субтитры: Отсутствуют

Скриншоты

MI

Общее
Полное имя : E:\закачки\Три богатыря и Шамаханская царица (rip) [/*spam*/].avi
Формат : AVI
Формат/Информация : Audio Video Interleave
Размер файла : 1,04 Гбайт
Продолжительность : 1 ч. 13 м.
Общий поток : 2026 Кбит/сек
Программа кодирования : VirtualDubMod 1.5.10.2 (build 2540/release)
Библиотека кодирования : VirtualDubMod build 2540/release
Видео
Идентификатор : 0
Формат : MPEG-4 Visual
Профиль формата : Advanced [email protected]
Параметр BVOP формата : 2
Параметр QPel формата : Нет
Параметр GMC формата : Без точки перехода
Параметр матрицы формата : Default (H.263)
Идентификатор кодека : XVID
Идентификатор кодека/Подсказка : XviD
Продолжительность : 1 ч. 13 м.
Битрейт : 1568 Кбит/сек
Ширина : 720 пикселей
Высота : 400 пикселей
Соотношение сторон : 16:9
Частота кадров : 25,000 кадров/сек
Цветовое пространство : YUV
Субдискретизация насыщенности : 4:2:0
Битовая глубина : 8 бит
Тип развёртки : Прогрессивная
Метод сжатия : С потерями
Бит/(Пиксели*Кадры) : 0.218
Размер потока : 824 Мбайт (77%)
Библиотека кодирования : XviD 1.2.1 (UTC 2008-12-04)
Аудио
Идентификатор : 1
Формат : AC-3
Формат/Информация : Audio Coding 3
Расширение режима : CM (complete main)
Параметр Endianness формата : Big
Идентификатор кодека : 2000
Продолжительность : 1 ч. 13 м.
Вид битрейта : Постоянный
Битрейт : 448 Кбит/сек
Каналы : 6 каналов
Расположение каналов : Front: L C R, Side: L R, LFE
Частота : 48,0 КГц
Битовая глубина : 16 бит
Метод сжатия : С потерями
Размер потока : 235 Мбайт (22%)
Выравнивание : Соединение по промежуткам
Продолжительность промежутка : 40 мс. (1,00 видеокадр)
Время предзагрузки промежутка : 512 мс.
Other forum [Profile] [PM]
Display posts from previous:    
Reply to topic

The time now is: Today 04:56

All times are GMT + 3 Hours



You cannot post new topics in this forum
You cannot reply to topics in this forum
You cannot edit your posts in this forum
You cannot delete your posts in this forum
You cannot vote in polls in this forum
You cannot attach files in this forum
You cannot download files in this forum