Today is a free download without charge Download

Discovery: Восстание машин (серии 1-3) / Discovery: Rise of the Machines (2014) SATRip

Reply to topic
 
Author
Message

Omen ®

Longevity: 7 years 10 months

Posts: 181087

Торрент-статистика

Post 30-Sep-2014 21:07

[Quote]

Discovery Channel "Восстание машин"
Discovery Channel "Rise of the Machines"
- Год выпуска: 2014
Жанр: Документальный
Описание фильма:
Познакомьтесь с уникальными техническими достижениями со всего мира в новой программе Discovery Channel «Восстание машин». Вы увидите новейшие разработки в области машиностроения, а также настоящих автомобильных «монстров», скрывающих под своими корпусами мощнейшие двигатели, новейшее электронное оснащение, а также уникальные технические решения.
Режиссер: Peter Gauvain
Продолжительность: ~00:44:00 на серию
Качество видео: SATRip
Перевод: Профессиональный одноголосый закадровый
Видеокодек: Xvid
Битрейт видео: 2990 Кбит/сек
Размер кадра: 720х576 WideScreen
Аудиокодек: MP3, 2 channels
Битрейт аудио: 128 Кбит/сек

Описание серий:

1 серия: Мега Грузовик / Mega Truck

Двигатель, как у грузового тепловоза, шины высотой в два человеческих роста: таков мега-грузовик за 5,5 миллионов $.

2 серия: Супер Дирижабль / Super Airship

В новом выпуске вас ждет знакомство со сверхскоростным супер-дирижаблем с небывалой грузоподъемностью. Особенность Aeroscraft Dragon Dream – использование технологии RAVB, то есть применение жёсткого каркаса и системы переменной плавучести.

3 серия: Гигантский корабль

Сегодня вы узнаете, что скрыто под кожей гигантского корабля, позволяющего перевозить нефтяные платформы - 50000 тонн, 220.000 $, таков мега контейнеровоз "Сокровище".
Команда грузового корабля "Treasure" перевозит нефтяную платформу из Сингапура в Мексиканский залив. Каким образом этот морской гигант остается на плаву?

МедиаИнфо (тех. параметры всех файлов в раздаче аналогичны):

Видео
Идентификатор : 0
Формат : AVC
Формат/Информация : Advanced Video Codec
Профиль формата : [url=mailto:[email protected]][email protected][/url]
Параметр CABAC формата : Да
Параметр ReFrames формата : 1 кадр
Идентификатор кодека : X264
Идентификатор кодека/Информация : XiWave GNU GPL x264 MPEG-4
Продолжительность : 43 м.
Битрейт : 2990 Кбит/сек
Ширина : 720 пикселей
Высота : 576 пикселей
Соотношение сторон : 16:9
Частота кадров : 25,000 кадров/сек
Стандарт вещания : PAL
Цветовое пространство : YUV
Субдискретизация насыщенности : 4:2:0
Битовая глубина : 8 бит
Тип развёртки : Прогрессивная
Бит/(Пиксели*Кадры) : 0.288
Размер потока : 940 Мбайт (96%)
Аудио
Идентификатор : 1
Формат : MPEG Audio
Версия формата : Version 1
Профиль формата : Layer 3
Идентификатор кодека : 55
Идентификатор кодека/Подсказка : MP3
Продолжительность : 43 м.
Вид битрейта : Постоянный
Битрейт : 128 Кбит/сек
Каналы : 2 канала
Частота : 44,1 КГц
Метод сжатия : С потерями
Размер потока : 40,3 Мбайт (4%)
Выравнивание : Разделение по промежуткам
Продолжительность промежутка : 26 мс. (0,65 видеокадр)
Время предзагрузки промежутка : 127 мс.
-Скриншоты:
                       -
Other forum [Profile] [PM]
Display posts from previous:    
Reply to topic

The time now is: Today 04:14

All times are GMT + 3 Hours



You cannot post new topics in this forum
You cannot reply to topics in this forum
You cannot edit your posts in this forum
You cannot delete your posts in this forum
You cannot vote in polls in this forum
You cannot attach files in this forum
You cannot download files in this forum