Today is a free download without charge Download

Виртуальное путешествие: Лето в Хоккайдо / Virtual Trip: Hokkaido Summer (2009) BDRip [1080p]

Reply to topic
 
Author
Message

Omen ®

Longevity: 9 years 1 month

Posts: 181086

Торрент-статистика

Post 21-Jan-2012 23:17

[Quote]

Виртуальное путешествие: Лето в Хоккайдо
Virtual Trip: Hokkaido Summer
-
Русское название: Виртуальное путешествие: Лето в Хоккайдо
Оригинальное название: Virtual Trip: Hokkaido Summer
Режиссер / Телекомпания: Япония
Год выпуска: 2009
Жанр: Документальный, Видовой, Телепередача
-Описание:
Вы когда-либо были Хоккайдо летом? Остров бескрайнего голубого неба и необычайных зелёных просторов земли. Холмистые ландшафты усыпаны – затейливыми и яркими цветами. Лето в Хоккайдо короткое и поэтому спавшая долгу. Зиму природа стремится показать себя как можно ярче и красочней, буквально в течении нескольких дней расцветает во всём своём великолепии. Скачайте это солнечное HD видео и Ваш дом наполнится тёплыми и сочными цветами этого удивительного уголка нашей планеты, а необычайные звуки музыкального сопровождения нежно окутают Вас и помогут погрузится в умиротворение для релаксации после трудовых будней.-Примечание: в конце 30 минуты возникает артефакт - тоже самое и в исходнике. -Продолжительность: 00:46:14-Перевод: Не требуется (нет диалогов и комментариев)-Видеокодек: MPEG-4 AVC/H.264
Битрейт видео: ~11.0 Mbps
Размер кадра: 1920x1080, 29.97 fps
Качество видео: BDRip [1080p]
Аудиокодек: DTS 5.1, 2 tracks - [Natural Sound] [Music+Natural Sound]
Битрейт аудио: 1510 Kbps (для обеих)
-

MediaInfo

Код:
General
Unique ID                        : 222482703674542136822206191278252031967 (0xA7609C30447981809B0DAE493616FFDF)
Complete name                    : VT.Hokkaido.Summer.BDRip.1080p.mkv
Format                           : Matroska
File size                        : 4.52 GiB
Duration                         : 46mn 14s
Overall bit rate                 : 14.0 Mbps
Encoded date                     : UTC 2010-06-06 20:51:33
Writing application              : mkvmerge v3.0.0 ('Hang up your Hang-Ups') built on Dec 12 2009 15:20:35
Writing library                  : libebml v0.7.9 + libmatroska v0.8.1
Video
ID                               : 1
Format                           : AVC
Format/Info                      : Advanced Video Codec
Format profile                   : [url=mailto:[email protected]][email protected][/url]
Format settings, CABAC           : Yes
Format settings, ReFrames        : 4 frames
Codec ID                         : V_MPEG4/ISO/AVC
Duration                         : 46mn 14s
Bit rate                         : 11.0 Mbps
Width                            : 1 920 pixels
Height                           : 1 080 pixels
Display aspect ratio             : 16:9
Frame rate                       : 29.970 fps
Color space                      : YUV
Chroma subsampling               : 4:2:0
Bit depth                        : 8 bits
Scan type                        : Progressive
Bits/(Pixel*Frame)               : 0.177
Stream size                      : 3.45 GiB (76%)
Title                            : Virtual Trip: Hokkaido Summer
Writing library                  : x264 core 96 r1613 81e75e9
Encoding settings                : cabac=1 / ref=5 / deblock=1:-3:-3 / analyse=0x3:0 / me=esa / subme=7 / psy=1 / psy_rd=1.00:0.00 / mixed_ref=1 / me_range=16 / chroma_me=1 /
trellis=2 / 8x8dct=1 / cqm=0 / deadzone=21,11 / fast_pskip=0 / chroma_qp_offset=-2 / threads=3 / sliced_threads=0 / nr=0 / decimate=1 / interlaced=0 / constrained_intra=0 /
bframes=6 / b_pyramid=1 / b_adapt=2 / b_bias=0 / direct=3 / weightb=1 / weightp=2 / keyint=250 / keyint_min=25 / scenecut=40 / intra_refresh=0 / rc_lookahead=40 / rc=2pass
/ mbtree=1 / bitrate=11000 / ratetol=1.0 / qcomp=0.60 / qpmin=10 / qpmax=51 / qpstep=4 / cplxblur=20.0 / qblur=0.5 / vbv_maxrate=50000 / vbv_bufsize=50000 /
ip_ratio=1.40 / aq=1:0.80 / nal_hrd=none
Language                         : English
Audio #1
ID                               : 2
Format                           : DTS
Format/Info                      : Digital Theater Systems
Codec ID                         : A_DTS
Duration                         : 46mn 14s
Bit rate mode                    : Constant
Bit rate                         : 1 510 Kbps
Channel(s)                       : 6 channels
Channel positions                : Front: L C R, Side: L R, LFE
Sampling rate                    : 48.0 KHz
Bit depth                        : 24 bits
Compression mode                 : Lossy
Stream size                      : 499 MiB (11%)
Title                            : Natural Sound
Language                         : Chinese
Audio #2
ID                               : 3
Format                           : DTS
Format/Info                      : Digital Theater Systems
Codec ID                         : A_DTS
Duration                         : 46mn 14s
Bit rate mode                    : Constant
Bit rate                         : 1 510 Kbps
Channel(s)                       : 6 channels
Channel positions                : Front: L C R, Side: L R, LFE
Sampling rate                    : 48.0 KHz
Bit depth                        : 24 bits
Compression mode                 : Lossy
Stream size                      : 499 MiB (11%)
Title                            : Music+Natural Sound
Language                         : Chinese
Text
ID                               : 4
Format                           : UTF-8
Codec ID                         : S_TEXT/UTF8
Codec ID/Info                    : UTF-8 Plain Text
Title                            : English
Language                         : English
Menu
00:00:00.000                     : en:00:00:00.000
00:07:56.343                     : en:00:07:56.343
00:09:30.303                     : en:00:09:30.303
00:11:48.374                     : en:00:11:48.374
00:15:29.328                     : en:00:15:29.328
00:19:48.654                     : en:00:19:48.654
00:26:58.684                     : en:00:26:58.684
00:33:25.670                     : en:00:33:25.670
00:36:16.975                     : en:00:36:16.975
00:38:42.320                     : en:00:38:42.320
-Скриншоты:
       
Other forum [Profile] [PM]
Display posts from previous:    
Reply to topic

The time now is: Today 23:29

All times are GMT + 3 Hours



You cannot post new topics in this forum
You cannot reply to topics in this forum
You cannot edit your posts in this forum
You cannot delete your posts in this forum
You cannot vote in polls in this forum
You cannot attach files in this forum
You cannot download files in this forum