Today is a free download without charge Download

Москва слезам не верит (Владимир Меньшов) [1979, драма, мелодрама, комедия, BDRip] (H.264)

Reply to topic
 
Author
Message

Omen ®

Longevity: 6 years 5 months

Posts: 171875

Торрент-статистика

Post 21-Jan-2012 22:55

[Quote]

Москва слезам не верит - Русское название: Москва слезам не верит
Год выпуска: 1979
Жанр: Мелодрама, Комедия-Описание фильма:
Москва пятидесятых годов. Три молодые провинциалки приезжают в Москву в поисках того, что ищут люди во всех столицах мира - любви, счастья и достатка. Их судьбы складываются именно так, как предполагает характер каждой из девушек. Антонина выходит замуж, растит детей, любит мужа. Людмиле Москва представляется лотереей, в которой она должна выиграть свое особенное счастье. Катерина же - отчаянно влюбляется, но избранник ее оставляет. Однако она не опускает руки, в одиночку растит дочь и к тому же успевает сделать блестящую карьеру. В сорок лет судьба дарит ей встречу с прекрасным человеком и настоящую любовь...-Режиссер: Владимир Меньшов-Актеры:
Вера Алентова, Ирина Муравьёва, Алексей Баталов, Раиса Рязанова, Александр Фатюшин, Борис Сморчков, Виктор Уральский, Валентина Ушакова, Юрий Васильев, Евгения Ханаева, Зоя Фёдорова, Наталья Вавилова, Лия Ахеджакова, Олег Табаков, Владимир Басов.-Продолжительность: 2 серии = 01:06:51+01:21:27- -Контейнер: MKV
Видеокодек: MPEG-4 AVC/H.264
Битрейт видео: ~4000 Kbps
Размер кадра: 1268x902 23.98fps
Качество видео: BDRip
Аудиокодек: AC3 5.1
Битрейт аудио: 640 Kbps-

Media Info

Код:
General
Unique ID : 189624578998784037309670938620313120286 (0x8EA85D90A87C2AD189FD52D30AAEAE1E)
Complete name : Москва слезам не верит 1 серия.mkv
Format : Matroska
Format version : Version 2
File size : 2.16 GiB
Duration : 1h 6mn
Overall bit rate : 4 630 Kbps
Movie name : Москва слезам не верит - 1 серия (rip by smithland)
Encoded date : UTC 2011-12-14 15:40:06
Writing application : mkvmerge v5.0.1 ('Es ist Sommer')
Writing library : libebml v1.2.2 + libmatroska v1.3.0
Attachment : Yes / Yes
Video
ID : 1
Format : AVC
Format/Info : Advanced Video Codec
Format profile : [email protected]
Format settings, CABAC : Yes
Format settings, ReFrames : 3 frames
Codec ID : V_MPEG4/ISO/AVC
Duration : 1h 6mn
Bit rate : 4 000 Kbps
Width : 1 920 pixels
Height : 1 024 pixels
Display aspect ratio : 4:3
Frame rate mode : Variable
Frame rate : 23.976 fps
Color space : YUV
Chroma subsampling : 4:2:0
Bit depth : 8 bits
Scan type : Progressive
Bits/(Pixel*Frame) : 0.085
Stream size : 1.82 GiB (84%)
Writing library : x264 core 120 r2120
Encoding settings : cabac=1 / ref=4 / deblock=1:-2:2 / analyse=0x3:0x133 / me=esa / subme=9 / psy=1 / psy_rd=1.50:0.50 / mixed_ref=0 / me_range=24 / chroma_me=1 / trellis=1 / 8x8dct=1 / cqm=0 / deadzone=21,11 / fast_pskip=1 / chroma_qp_offset=-4 / threads=6 / sliced_threads=0 / nr=2 / decimate=0 / interlaced=0 / bluray_compat=0 / constrained_intra=0 / bframes=3 / b_pyramid=1 / b_adapt=1 / b_bias=0 / direct=3 / weightb=1 / open_gop=1 / weightp=2 / keyint=230 / keyint_min=23 / scenecut=80 / intra_refresh=0 / rc_lookahead=40 / rc=abr / mbtree=1 / bitrate=4000 / ratetol=1.0 / qcomp=0.60 / qpmin=10 / qpmax=69 / qpstep=4 / vbv_maxrate=24000 / vbv_bufsize=24000 / nal_hrd=none / ip_ratio=1.40 / aq=1:1.00
Language : Russian
Default : Yes
Forced : Yes
Audio
ID : 2
Format : AC-3
Format/Info : Audio Coding 3
Mode extension : CM (complete main)
Codec ID : A_AC3
Duration : 1h 6mn
Bit rate mode : Constant
Bit rate : 640 Kbps
Channel(s) : 6 channels
Channel positions : Front: L C R, Side: L R, LFE
Sampling rate : 48.0 KHz
Bit depth : 16 bits
Compression mode : Lossy
Stream size : 306 MiB (14%)
Language : Russian
Default : Yes
Forced : Yes
Menu
00:00:00.000 : :ëࢠ 01
00:05:00.000 : :ëࢠ 02
00:10:00.000 : :ëࢠ 03
00:15:00.000 : :ëࢠ 04
00:20:00.000 : :ëࢠ 05
00:25:00.000 : :ëࢠ 06
00:30:00.000 : :ëࢠ 07
00:35:00.000 : :ëࢠ 08
00:40:00.000 : :ëࢠ 09
00:45:00.000 : :ëࢠ 10
00:50:00.000 : :ëࢠ 11
00:55:00.000 : :ëࢠ 12
01:00:00.000 : :ëࢠ 13
01:05:00.000 : :ëࢠ 14[
****************************
General
Unique ID : 242989309740477510424145576333048386277 (0xB6CE09ED74558FACB89EBFFAF06D92E5)
Complete name : Москва слезам не верит 2 серия.mkv
Format : Matroska
Format version : Version 2
File size : 2.64 GiB
Duration : 1h 21mn
Overall bit rate : 4 646 Kbps
Movie name : Москва слезам не верит 2 серия (rip by smithland)
Encoded date : UTC 2011-12-14 15:42:19
Writing application : mkvmerge v5.0.1 ('Es ist Sommer')
Writing library : libebml v1.2.2 + libmatroska v1.3.0
Attachment : Yes / Yes
Video
ID : 1
Format : AVC
Format/Info : Advanced Video Codec
Format profile : [email protected]
Format settings, CABAC : Yes
Format settings, ReFrames : 3 frames
Codec ID : V_MPEG4/ISO/AVC
Duration : 1h 21mn
Bit rate : 4 000 Kbps
Width : 1 920 pixels
Height : 1 024 pixels
Display aspect ratio : 4:3
Frame rate mode : Variable
Frame rate : 23.976 fps
Color space : YUV
Chroma subsampling : 4:2:0
Bit depth : 8 bits
Scan type : Progressive
Bits/(Pixel*Frame) : 0.085
Stream size : 2.23 GiB (84%)
Writing library : x264 core 120 r2120
Encoding settings : cabac=1 / ref=4 / deblock=1:-2:2 / analyse=0x3:0x133 / me=esa / subme=9 / psy=1 / psy_rd=1.40:0.50 / mixed_ref=0 / me_range=24 / chroma_me=1 / trellis=1 / 8x8dct=1 / cqm=0 / deadzone=21,11 / fast_pskip=1 / chroma_qp_offset=-4 / threads=6 / sliced_threads=0 / nr=2 / decimate=0 / interlaced=0 / bluray_compat=0 / constrained_intra=0 / bframes=3 / b_pyramid=1 / b_adapt=1 / b_bias=0 / direct=3 / weightb=1 / open_gop=1 / weightp=2 / keyint=230 / keyint_min=23 / scenecut=80 / intra_refresh=0 / rc_lookahead=40 / rc=abr / mbtree=1 / bitrate=4000 / ratetol=1.0 / qcomp=0.60 / qpmin=10 / qpmax=69 / qpstep=4 / vbv_maxrate=20000 / vbv_bufsize=20000 / nal_hrd=none / ip_ratio=1.40 / aq=1:1.00
Language : Russian
Default : Yes
Forced : Yes
Audio
ID : 2
Format : AC-3
Format/Info : Audio Coding 3
Mode extension : CM (complete main)
Codec ID : A_AC3
Duration : 1h 21mn
Bit rate mode : Constant
Bit rate : 640 Kbps
Channel(s) : 6 channels
Channel positions : Front: L C R, Side: L R, LFE
Sampling rate : 48.0 KHz
Bit depth : 16 bits
Compression mode : Lossy
Stream size : 373 MiB (14%)
Language : Russian
Default : Yes
Forced : Yes
Menu
00:00:00.000 : :ëࢠ 01
00:05:00.000 : :ëࢠ 02
00:10:00.000 : :ëࢠ 03
00:15:00.000 : :ëࢠ 04
00:20:00.000 : :ëࢠ 05
00:25:00.000 : :ëࢠ 06
00:30:00.000 : :ëࢠ 07
00:35:00.000 : :ëࢠ 08
00:40:00.000 : :ëࢠ 09
00:45:00.000 : :ëࢠ 10
00:50:00.000 : :ëࢠ 11
00:55:00.000 : :ëࢠ 12
01:00:00.000 : :ëࢠ 13
01:05:00.000 : :ëࢠ 14
01:10:00.000 : :ëࢠ 15
01:15:00.000 : :ëࢠ 16
01:20:00.000 : :ëࢠ 17
Инфо о BD - http://vobzor.com/page.php?id=122
Сравнение с BD - http://www.check2pic.ru/compare/7359/Скриншоты:
       
       
Other forum [Profile] [PM]
Display posts from previous:    
Reply to topic

The time now is: Today 05:57

All times are GMT + 3 Hours



You cannot post new topics in this forum
You cannot reply to topics in this forum
You cannot edit your posts in this forum
You cannot delete your posts in this forum
You cannot vote in polls in this forum
You cannot attach files in this forum
You cannot download files in this forum