Today is a free download without charge Download

Свет далекой звезды (2 серии) (1964) SATRip

Reply to topic
 
Author
Message

Omen ®

Longevity: 7 years 2 months

Posts: 181087

Торрент-статистика

Post 21-Jan-2012 22:26

[Quote]

Свет далекой звезды (2 серии)-
Русское название: Свет далекой звезды (2 серии)
Год выпуска: 1964
Жанр: Мелодрама-Описание фильма:
По одноименной повести А.Б.Чаковского. Юные герои фильма познакомились еще в самом начале войны в Нижнем Новгороде (Горьком). Затем пришло сообщение о гибели девушки Ольги при взрыве боевого самолета. Через десять лет после войны майор в запасе Владимир Андреевич, работающий таксистом в Москве, увидев ее фотографию на страницах одного из журналов, начал розыск любимой. Казалось, что вот ещё один шаг - и они встретятся, но раны войны только отсрочили гибель...-Режиссер: Иван Пырьев
Актеры: Лионелла Пырьева, Николай Алексеев, Алексей Баталов, Ольга Викландт, Алефтина Константинова, Софья Пилявская, Владимир Коренев, Евгений Весник, Сергей Голованов, Николай Барабанов, Георгий Георгиу, Людмила Гнилова, Иван Жеваго, Вера Майорова-Земская, Александр Павлов, Николай Светловидов
-Продолжительность: 2:14:56 (1:08:05 + 1:06:50)- -Видеокодек: Xvid
Битрейт видео: ~1798 kbps
Размер кадра: 704x304
Качество видео: SATRip
Аудиокодек: MP3, 2ch
Битрейт аудио: ~128.00
(Тех. характеристики 2-х файлов идентичны)-

mediainfo

Код:
Общее
Полное имя                       : C:\Users\1\Downloads\svet_dalekoi_zvezdy\svet_dalekoi_zvezdy_01.avi
Формат                           : AVI
Формат/Информация                : Audio Video Interleave
Размер файла                     : 943 Мбайт
Продолжительность                : 1 ч. 8 м.
Общий поток                      : 1937 Кбит/сек
Режиссёр                         : SATrip by Animat (fenixclub.com)
Программа кодирования            : VirtualDubMod 1.5.10.2 (build 2540/release)
Библиотека кодирования           : VirtualDubMod build 2540/release
Видео
Идентификатор                    : 0
Формат                           : MPEG-4 Visual
Профиль формата                  : Advanced [email protected]
Параметр BVOP формата            : 2
Параметр QPel формата            : Нет
Параметр GMC формата             : Без точки перехода
Параметр матрицы формата         : Default (MPEG)
Режим смешивания                 : Сжатый битовый поток
Идентификатор кодека             : XVID
Идентификатор кодека/Подсказка   : XviD
Продолжительность                : 1 ч. 8 м.
Битрейт                          : 1799 Кбит/сек
Ширина                           : 704 пикселя
Высота                           : 304 пикселя
Соотношение сторон               : 2,35:1
Частота кадров                   : 25,000 кадров/сек
Цветовое пространство            : YUV
Субдискретизация насыщенности    : 4:2:0
Битовая глубина                  : 8 бит
Тип развёртки                    : Прогрессивная
Метод сжатия                     : С потерями
Бит/(Пиксели*Кадры)              : 0.336
Размер потока                    : 876 Мбайт (93%)
Библиотека кодирования           : XviD 1.1.2 (UTC 2006-11-01)
Аудио
Идентификатор                    : 1
Формат                           : MPEG Audio
Версия формата                   : Version 1
Профиль формата                  : Layer 3
Режим                            : Joint stereo
Идентификатор кодека             : 55
Идентификатор кодека/Подсказка   : MP3
Продолжительность                : 1 ч. 8 м.
Вид битрейта                     : Постоянный
Битрейт                          : 128 Кбит/сек
Каналы                           : 2 канала
Частота                          : 48,0 КГц
Метод сжатия                     : С потерями
Размер потока                    : 62,3 Мбайт (7%)
Выравнивание                     : Соединение по промежуткам
Продолжительность промежутка     : 40  мс. (1,00 видеокадр)
Время предзагрузки промежутка    : 504  мс.
-Скриншоты:
         
Other forum [Profile] [PM]
Display posts from previous:    
Reply to topic

The time now is: Today 22:33

All times are GMT + 3 Hours



You cannot post new topics in this forum
You cannot reply to topics in this forum
You cannot edit your posts in this forum
You cannot delete your posts in this forum
You cannot vote in polls in this forum
You cannot attach files in this forum
You cannot download files in this forum